<?xml version="1.0" standalone="no"?>
<!DOCTYPE svg PUBLIC "-//W3C//DTD SVG 1.1//EN" "http://www.w3.org/Graphics/SVG/1.1/DTD/svg11.dtd" >
<svg xmlns="http://www.w3.org/2000/svg" xmlns:xlink="http://www.w3.org/1999/xlink" version="1.1">
<metadata>
Created by FontForge 20190801 at Thu Jun 20 10:05:05 2019
 By Jimmy Wärting
Copyright (c) 2019, The Noto Project Authors (github. com/googlei18n/noto-fonts). Copyright (c) 2019, Inter IKEA Systems B.V. (www.ikea.com) with Reserved Font Name IKEA. IKEA is a registered trademark of Inter IKEA Systems B.V.
</metadata>
<defs>
<font id="NotoIKEALatin-Bold" horiz-adv-x="0" >
  <font-face 
    font-family="Noto IKEA Latin"
    font-weight="700"
    font-stretch="normal"
    units-per-em="1000"
    panose-1="2 11 8 2 4 5 4 2 2 4"
    ascent="800"
    descent="-200"
    x-height="546"
    cap-height="714"
    bbox="-619 -293 1319 1069"
    underline-thickness="50"
    underline-position="-125"
    unicode-range="U+0020-FDFC"
  />
<missing-glyph horiz-adv-x="600" 
d="M94 0v714h411v-714h-411zM145 51h309v612h-309v-612z" />
    <glyph glyph-name="f_f#0" unicode="ff" horiz-adv-x="774" 
d="M380 434h-129v-434h-149v434h-82v72l82 40v40q0 69 23.5 108t67 55t102.5 16q44 0 79.5 -7t57.5 -16l-38 -109q-17 5 -37 9.5t-46 4.5q-31 0 -45.5 -19t-14.5 -48v-34h129v-112zM767 434h-129v-434h-149v434h-82v72l82 40v40q0 69 23.5 108t67 55t102.5 16q44 0 79.5 -7
t57.5 -16l-38 -109q-17 5 -37 9.5t-46 4.5q-31 0 -45.5 -19t-14.5 -48v-34h129v-112z" />
    <glyph glyph-name="fi#0" unicode="fi" horiz-adv-x="692" 
d="M380 434h-129v-434h-149v434h-82v72l82 40v40q0 69 23.5 108t67 55t102.5 16q44 0 79.5 -7t57.5 -16l-38 -109q-17 5 -37 9.5t-46 4.5q-31 0 -45.5 -19t-14.5 -48v-34h129v-112zM540 760q33 0 57 -15.5t24 -57.5q0 -41 -24 -57t-57 -16q-34 0 -57.5 16t-23.5 57
q0 42 23.5 57.5t57.5 15.5zM614 546v-546h-149v546h149z" />
    <glyph glyph-name="fl#0" unicode="fl" horiz-adv-x="692" 
d="M380 434h-129v-434h-149v434h-82v72l82 40v40q0 69 23.5 108t67 55t102.5 16q44 0 79.5 -7t57.5 -16l-38 -109q-17 5 -37 9.5t-46 4.5q-31 0 -45.5 -19t-14.5 -48v-34h129v-112zM614 0h-149v760h149v-760z" />
    <glyph glyph-name="f_f_i#0" unicode="ffi" horiz-adv-x="1079" 
d="M380 434h-129v-434h-149v434h-82v72l82 40v40q0 69 23.5 108t67 55t102.5 16q44 0 79.5 -7t57.5 -16l-38 -109q-17 5 -37 9.5t-46 4.5q-31 0 -45.5 -19t-14.5 -48v-34h129v-112zM767 434h-129v-434h-149v434h-82v72l82 40v40q0 69 23.5 108t67 55t102.5 16q44 0 79.5 -7
t57.5 -16l-38 -109q-17 5 -37 9.5t-46 4.5q-31 0 -45.5 -19t-14.5 -48v-34h129v-112zM927 760q33 0 57 -15.5t24 -57.5q0 -41 -24 -57t-57 -16q-34 0 -57.5 16t-23.5 57q0 42 23.5 57.5t57.5 15.5zM1001 546v-546h-149v546h149z" />
    <glyph glyph-name="f_f_l#0" unicode="ffl" horiz-adv-x="1079" 
d="M380 434h-129v-434h-149v434h-82v72l82 40v40q0 69 23.5 108t67 55t102.5 16q44 0 79.5 -7t57.5 -16l-38 -109q-17 5 -37 9.5t-46 4.5q-31 0 -45.5 -19t-14.5 -48v-34h129v-112zM767 434h-129v-434h-149v434h-82v72l82 40v40q0 69 23.5 108t67 55t102.5 16q44 0 79.5 -7
t57.5 -16l-38 -109q-17 5 -37 9.5t-46 4.5q-31 0 -45.5 -19t-14.5 -48v-34h129v-112zM1001 0h-149v760h149v-760z" />
    <glyph glyph-name="rial#1" unicode="&#xfdfc;" horiz-adv-x="1304" arabic-form="isolated" 
d="M348 -188q-93 0 -167.5 26t-118.5 80.5t-44 139.5q0 35 9.5 85t46.5 132l122 -47q-22 -54 -30 -84t-8 -60q0 -64 51.5 -101t142.5 -37q84 0 130.5 28t65 82.5t17.5 133.5q-54 -35 -91 -47t-77 -12q-55 0 -89.5 21t-50.5 56.5t-16 78.5q0 49 22 106.5t74 111.5l102 -69
q-30 -31 -46 -67.5t-16 -60.5q0 -21 11.5 -33.5t34.5 -12.5q25 -1 54.5 15.5t82.5 56.5l-14 380h142l9 -272l1 1q17 13 33 25.5t31 24.5l-9 221h141l6 -124q35 21 67.5 31t66.5 9q56 -2 100 -41.5t58 -117.5l-116 -34q-21 69 -67 69q-21 0 -44 -13t-59 -41l9 -209
q2 -49 10 -73.5t29.5 -32.5t65.5 -8q66 0 88.5 13t22.5 53q0 32 -12.5 74.5t-27.5 85.5l130 38q10 -27 20.5 -62t17.5 -72.5t7 -72.5q0 -100 -62.5 -145.5t-193.5 -45.5q-93 0 -143.5 19t-70.5 59.5t-22 102.5l-6 165h-1q-18 -14 -34 -26.5t-31 -24.5l2 -68
q2 -81 -13.5 -154.5t-56 -131.5t-110.5 -91t-176 -33zM995 -197q-26 0 -45.5 18.5t-19.5 44.5q0 28 19.5 47.5t45.5 19.5q27 0 46 -19.5t19 -47.5q0 -26 -19 -44.5t-46 -18.5zM1149 -197q-28 0 -46.5 18.5t-18.5 44.5q0 28 18.5 47.5t46.5 19.5q26 0 45.5 -19.5t19.5 -47.5
q0 -26 -19.5 -44.5t-45.5 -18.5z" />
    <glyph glyph-name=".notdef" horiz-adv-x="600" 
d="M94 0v714h411v-714h-411zM145 51h309v612h-309v-612z" />
    <glyph glyph-name="space#0" unicode=" " horiz-adv-x="260" 
 />
    <glyph glyph-name="exclam#0" unicode="!" horiz-adv-x="286" 
d="M203 237h-119l-25 477h169zM57 70q0 46 25 64.5t61 18.5q35 0 60 -18.5t25 -64.5q0 -44 -25 -63.5t-60 -19.5q-36 0 -61 19.5t-25 63.5z" />
    <glyph glyph-name="quotedbl#0" unicode="&#x22;" horiz-adv-x="472" 
d="M201 714l-20 -258h-96l-20 258h136zM407 714l-20 -258h-96l-20 258h136z" />
    <glyph glyph-name="numbersign#0" unicode="#" horiz-adv-x="646" 
d="M488 412l-23 -113h126v-101h-145l-38 -198h-107l38 198h-95l-37 -198h-105l36 198h-116v101h135l23 113h-123v102h141l38 199h107l-38 -199h97l38 199h105l-38 -199h117v-102h-136zM263 299h96l23 113h-96z" />
    <glyph glyph-name="dollar#0" unicode="$" horiz-adv-x="572" 
d="M253 -58v98q-65 2 -116 12.5t-93 29.5v129q41 -20 99 -36.5t110 -19.5v151q-78 30 -124 58.5t-66 63.5t-20 84q0 75 58.5 119.5t151.5 52.5v75h67v-73q111 -4 202 -45l-46 -114q-40 17 -80.5 26t-75.5 12v-144q54 -20 103 -43.5t79.5 -59.5t30.5 -95q0 -73 -53 -122
t-160 -59v-100h-67zM253 448v115q-63 -9 -63 -51q0 -21 15 -35t48 -29zM320 158q66 12 66 58q0 20 -16.5 34.5t-49.5 29.5v-122z" />
    <glyph glyph-name="percent#0" unicode="%" horiz-adv-x="901" 
d="M199 724q84 0 127.5 -58.5t43.5 -164.5t-41 -165.5t-130 -59.5q-82 0 -125 59.5t-43 165.5t40 164.5t128 58.5zM706 714l-396 -714h-117l396 714h117zM200 622q-46 0 -46 -122q0 -123 46 -123q47 0 47 123q0 122 -47 122zM699 439q84 0 127.5 -58.5t43.5 -164.5
t-41 -165.5t-130 -59.5q-82 0 -125 59.5t-43 165.5t40 164.5t128 58.5zM700 337q-46 0 -46 -122q0 -123 46 -123q47 0 47 123q0 122 -47 122z" />
    <glyph glyph-name="ampersand#0" unicode="&#x26;" horiz-adv-x="750" 
d="M310 724q58 0 103 -18t71 -52.5t26 -84.5q0 -69 -41 -116t-102 -82l139 -135q20 34 35 71.5t25 75.5h155q-15 -56 -44 -120t-74 -120l147 -143h-184l-56 55q-43 -30 -96 -47.5t-115 -17.5q-122 0 -190.5 56t-68.5 147q0 76 35 121.5t96 80.5q-39 45 -54.5 83t-15.5 81
q0 51 26.5 88t74 57t108.5 20zM309 609q-25 0 -47.5 -12.5t-22.5 -47.5q0 -25 12.5 -48t33.5 -47q42 23 64.5 46t22.5 53t-20 43t-43 13zM258 306q-28 -21 -44.5 -44.5t-16.5 -54.5q0 -43 32 -67.5t80 -24.5q32 0 60 8t51 22z" />
    <glyph glyph-name="quotesingle#0" unicode="'" horiz-adv-x="266" 
d="M201 714l-20 -258h-96l-20 258h136z" />
    <glyph glyph-name="parenleft#0" unicode="(" horiz-adv-x="339" 
d="M40 274q0 122 35.5 235.5t111.5 204.5h122q-68 -94 -103.5 -207t-35.5 -232q0 -116 35.5 -228.5t102.5 -204.5h-121q-76 88 -111.5 199.5t-35.5 232.5z" />
    <glyph glyph-name="parenright#0" unicode=")" horiz-adv-x="339" 
d="M299 274q0 -121 -35.5 -232.5t-111.5 -199.5h-121q68 92 103 204.5t35 228.5q0 119 -35.5 232t-103.5 207h122q76 -91 111.5 -204.5t35.5 -235.5z" />
    <glyph glyph-name="asterisk#0" unicode="*" horiz-adv-x="545" 
d="M336 760l-20 -180l182 51l16 -123l-166 -12l109 -145l-111 -59l-76 153l-67 -152l-115 58l108 145l-165 13l19 122l178 -51l-20 180h128z" />
    <glyph glyph-name="plus#0" unicode="+" horiz-adv-x="572" 
d="M339 406h189v-107h-189v-188h-107v188h-189v107h189v190h107v-190z" />
    <glyph glyph-name="comma#0" unicode="," horiz-adv-x="285" 
d="M217 116l7 -11q-13 -53 -37 -116t-49 -118h-107q14 59 28 126t21 119h137z" />
    <glyph glyph-name="hyphen#0" unicode="-" horiz-adv-x="322" 
d="M30 207v122h262v-122h-262z" />
    <glyph glyph-name="period#0" unicode="." horiz-adv-x="285" 
d="M57 70q0 46 25 64.5t61 18.5q35 0 60 -18.5t25 -64.5q0 -44 -25 -63.5t-60 -19.5q-36 0 -61 19.5t-25 63.5z" />
    <glyph glyph-name="slash#0" unicode="/" horiz-adv-x="413" 
d="M408 714l-266 -714h-135l266 714h135z" />
    <glyph glyph-name="zero.lf#0" horiz-adv-x="572" 
d="M535 357q0 -115 -24.5 -197t-79 -126t-146.5 -44q-129 0 -189 97.5t-60 269.5q0 116 24 198t79 126t146 44q128 0 189 -97t61 -271zM186 357q0 -122 21 -183.5t78 -61.5q56 0 78 61t22 184q0 122 -22 184t-78 62q-57 0 -78 -62t-21 -184z" />
    <glyph glyph-name="one.lf#0" horiz-adv-x="572" 
d="M413 0h-151v413q0 26 1.5 68t2.5 74q-5 -6 -21.5 -21.5t-30.5 -27.5l-82 -66l-73 91l230 183h124v-714z" />
    <glyph glyph-name="two.lf#0" horiz-adv-x="572" 
d="M539 0h-499v105l179 181q54 56 87 93.5t48 68t15 65.5q0 43 -23.5 64t-63.5 21q-41 0 -80 -19t-82 -54l-82 97q31 27 65.5 50t80 37.5t109.5 14.5q70 0 120.5 -25.5t78 -69t27.5 -98.5q0 -59 -23.5 -108t-68 -97t-107.5 -106l-92 -86v-7h311v-127z" />
    <glyph glyph-name="three.lf#0" horiz-adv-x="572" 
d="M511 554q0 -74 -44.5 -118t-109.5 -60v-3q86 -10 130.5 -52t44.5 -113q0 -63 -30.5 -112t-94 -77.5t-163.5 -28.5q-116 0 -206 39v128q46 -23 96.5 -35t93.5 -12q81 0 113.5 28t32.5 79q0 30 -15 50.5t-52.5 31t-104.5 10.5h-54v116h55q66 0 100.5 12.5t47 34t12.5 49.5
q0 38 -23.5 59.5t-78.5 21.5q-51 0 -88.5 -17.5t-63.5 -34.5l-70 104q42 30 98.5 50t134.5 20q110 0 174.5 -44.5t64.5 -125.5z" />
    <glyph glyph-name="four.lf#0" horiz-adv-x="572" 
d="M555 148h-86v-148h-147v148h-305v105l313 461h139v-449h86v-117zM322 265v121q0 23 1 56t2.5 61.5t2.5 37.5h-4q-9 -20 -19 -39t-24 -39l-131 -198h172z" />
    <glyph glyph-name="five.lf#0" horiz-adv-x="572" 
d="M300 456q65 0 116 -25t80.5 -73t29.5 -119q0 -116 -72 -182.5t-213 -66.5q-56 0 -105.5 10t-86.5 29v130q37 -19 89 -32.5t98 -13.5q67 0 102.5 27.5t35.5 85.5q0 108 -143 108q-28 0 -58 -5.5t-50 -10.5l-60 32l27 364h387v-128h-255l-13 -140q17 3 36.5 6.5t54.5 3.5z
" />
    <glyph glyph-name="six.lf#0" horiz-adv-x="572" 
d="M35 303q0 62 9 122t31.5 113.5t63 95t103 65t151.5 23.5q21 0 49 -1.5t47 -5.5v-121q-19 5 -41.5 7.5t-44.5 2.5q-89 0 -137.5 -28t-68.5 -78.5t-23 -116.5h6q20 35 57.5 59t97.5 24q94 0 149 -59t55 -167q0 -116 -65.5 -182t-177.5 -66q-73 0 -132 33.5t-94 103
t-35 176.5zM293 111q44 0 72 30.5t28 94.5q0 52 -24 82t-73 30q-34 0 -58.5 -14.5t-38.5 -37.5t-14 -47q0 -33 12 -64.5t36.5 -52.5t59.5 -21z" />
    <glyph glyph-name="seven.lf#0" horiz-adv-x="572" 
d="M111 0l268 587h-352v127h512v-95l-270 -619h-158z" />
    <glyph glyph-name="eight.lf#0" horiz-adv-x="572" 
d="M286 723q62 0 113.5 -19t83 -57.5t31.5 -95.5q0 -64 -36.5 -105.5t-91.5 -68.5q38 -20 72.5 -46.5t56 -62t21.5 -83.5q0 -60 -31.5 -103.5t-88 -67.5t-130.5 -24q-120 0 -185.5 51t-65.5 140q0 74 40 119t97 73q-48 30 -81.5 72.5t-33.5 106.5q0 57 32 95t84.5 57
t112.5 19zM285 613q-37 0 -61.5 -19t-24.5 -54q0 -37 26 -60t61 -40q34 16 60 38.5t26 61.5q0 35 -24.5 54t-62.5 19zM175 190q0 -39 27.5 -64t81.5 -25q56 0 84 24t28 64q0 27 -16 47.5t-39.5 37t-48.5 30.5l-13 7q-46 -22 -75 -51t-29 -70z" />
    <glyph glyph-name="nine.lf#0" horiz-adv-x="572" 
d="M536 409q0 -61 -9 -121.5t-31.5 -114t-63 -95t-103 -65t-151.5 -23.5q-21 0 -49 1.5t-47 5.5v121q20 -4 42 -7t44 -3q89 0 137.5 28.5t68.5 78.5t23 116h-6q-21 -35 -55.5 -59t-102.5 -24q-91 0 -146 59t-55 167q0 116 65.5 182t177.5 66q73 0 132 -33.5t94 -103
t35 -176.5zM278 601q-44 0 -72 -30t-28 -95q0 -52 24 -82t73 -30q34 0 58.5 15t38.5 37.5t14 46.5q0 33 -12 65t-36.5 52.5t-59.5 20.5z" />
    <glyph glyph-name="colon#0" unicode=":" horiz-adv-x="285" 
d="M57 473q0 46 25 64.5t61 18.5q35 0 60 -18.5t25 -64.5q0 -44 -25 -63.5t-60 -19.5q-36 0 -61 19.5t-25 63.5zM57 70q0 46 25 64.5t61 18.5q35 0 60 -18.5t25 -64.5q0 -44 -25 -63.5t-60 -19.5q-36 0 -61 19.5t-25 63.5z" />
    <glyph glyph-name="semicolon#0" unicode=";" horiz-adv-x="285" 
d="M57 473q0 46 25 64.5t61 18.5q35 0 60 -18.5t25 -64.5q0 -44 -25 -63.5t-60 -19.5q-36 0 -61 19.5t-25 63.5zM217 116l7 -11q-13 -53 -37 -116t-49 -118h-107q14 59 28 126t21 119h137z" />
    <glyph glyph-name="less#0" unicode="&#x3c;" horiz-adv-x="572" 
d="M528 99l-485 214v70l485 242v-117l-334 -155l334 -137v-117z" />
    <glyph glyph-name="equal#0" unicode="=" horiz-adv-x="572" 
d="M43 394v106h485v-106h-485zM43 204v107h485v-107h-485z" />
    <glyph glyph-name="greater#0" unicode="&#x3e;" horiz-adv-x="572" 
d="M43 216l334 137l-334 155v117l485 -242v-70l-485 -214v117z" />
    <glyph glyph-name="question#0" unicode="?" horiz-adv-x="477" 
d="M135 237v36q0 50 21 84t72 71q45 32 64.5 55.5t19.5 55.5t-23.5 48.5t-65.5 16.5t-83 -13t-84 -35l-53 107q49 27 106 44t125 17q104 0 161.5 -50t57.5 -127q0 -41 -13 -71t-39 -55.5t-65 -54.5q-29 -22 -45 -36.5t-21.5 -29t-5.5 -34.5v-29h-129zM119 70q0 46 25 64.5
t61 18.5q35 0 60 -18.5t25 -64.5q0 -44 -25 -63.5t-60 -19.5q-36 0 -61 19.5t-25 63.5z" />
    <glyph glyph-name="at#0" unicode="@" horiz-adv-x="897" 
d="M847 358q0 -46 -11 -91t-33.5 -82t-56.5 -58.5t-80 -21.5q-37 0 -65 17.5t-39 45.5h-8q-20 -25 -53.5 -44t-80.5 -19q-89 0 -137.5 53.5t-48.5 140.5q0 67 29 118.5t81.5 81t125.5 29.5q47 0 97.5 -8.5t78.5 -18.5l-10 -205q-1 -10 -1 -20.5v-13.5q0 -41 11.5 -54.5
t25.5 -13.5q23 0 38 22.5t22.5 60t7.5 82.5q0 83 -34 142t-92.5 90t-133.5 31q-105 0 -176.5 -43.5t-108.5 -118.5t-37 -172q0 -135 72.5 -207t208.5 -72q58 0 121 13t115 32v-94q-48 -20 -107 -32t-125 -12q-124 0 -212 44t-134.5 126.5t-46.5 198.5q0 91 30 169
t86.5 136.5t135.5 91t177 32.5q107 0 190 -43t130.5 -123t47.5 -190zM347 297q0 -55 23 -79t61 -24q50 0 70.5 36.5t24.5 95.5l6 108q-11 2 -25 3.5t-31 1.5q-47 0 -75.5 -20.5t-41 -53.5t-12.5 -68z" />
    <glyph glyph-name="A#0" unicode="A" horiz-adv-x="690" 
d="M527 0l-52 170h-260l-52 -170h-163l252 717h185l253 -717h-163zM439 297l-52 166q-5 17 -13 43t-16 53t-13 47q-5 -20 -13.5 -49.5t-16 -56t-11.5 -37.5l-51 -166h186z" />
    <glyph glyph-name="B#0" unicode="B" horiz-adv-x="672" 
d="M90 714h222q143 0 216 -40t73 -141q0 -61 -28.5 -103t-81.5 -51v-5q36 -7 65 -25t46 -52t17 -90q0 -97 -70 -152t-192 -55h-267v714zM241 431h88q66 0 91.5 21t25.5 61q0 41 -30 59t-95 18h-80v-159zM241 311v-186h99q68 0 95 26.5t27 70.5q0 40 -27.5 64.5t-99.5 24.5
h-94z" />
    <glyph glyph-name="C#0" unicode="C" horiz-adv-x="637" 
d="M393 598q-87 0 -133 -65t-46 -178q0 -114 42.5 -176.5t136.5 -62.5q44 0 87.5 10t94.5 28v-127q-47 -19 -93 -28t-103 -9q-110 0 -181.5 45.5t-105.5 128t-34 192.5q0 108 39 191t113.5 130t182.5 47q53 0 106.5 -13.5t102.5 -36.5l-49 -123q-40 19 -80.5 33t-79.5 14z
" />
    <glyph glyph-name="D#0" unicode="D" horiz-adv-x="740" 
d="M682 364q0 -181 -102.5 -272.5t-287.5 -91.5h-202v714h224q112 0 194.5 -40t128 -117.5t45.5 -192.5zM525 360q0 119 -52 174.5t-151 55.5h-81v-465h65q219 0 219 235z" />
    <glyph glyph-name="E#0" unicode="E" horiz-adv-x="560" 
d="M501 0h-411v714h411v-124h-260v-157h242v-124h-242v-184h260v-125z" />
    <glyph glyph-name="F#0" unicode="F" horiz-adv-x="549" 
d="M239 0h-149v714h409v-124h-260v-184h242v-124h-242v-282z" />
    <glyph glyph-name="G#0" unicode="G" horiz-adv-x="724" 
d="M361 401h283v-370q-56 -19 -116.5 -30t-137.5 -11q-160 0 -246 94t-86 274q0 112 43.5 194t126.5 127t203 45q57 0 112 -12t100 -32l-50 -121q-33 17 -75 28t-88 11q-66 0 -114.5 -30t-75 -84.5t-26.5 -128.5q0 -70 19 -124t60 -84.5t107 -30.5q32 0 54.5 3t41.5 7v149
h-135v126z" />
    <glyph glyph-name="H#0" unicode="H" horiz-adv-x="765" 
d="M675 0h-151v308h-283v-308h-151v714h151v-280h283v280h151v-714z" />
    <glyph glyph-name="I.salt#0" horiz-adv-x="389" 
d="M357 0h-325v86l87 40v462l-87 40v86h325v-86l-87 -40v-462l87 -40v-86z" />
    <glyph glyph-name="J.salt#0" horiz-adv-x="331" 
d="M15 -210q-29 0 -51 3.5t-38 7.5v126q16 -4 33.5 -7t37.5 -3q26 0 47.5 10t33.5 38t12 80v669h151v-668q0 -92 -28.5 -148.5t-79.5 -82t-118 -25.5z" />
    <glyph glyph-name="K#0" unicode="K" horiz-adv-x="664" 
d="M664 0h-172l-187 301l-64 -46v-255h-151v714h151v-327l30 42l30 42l193 243h168l-249 -316z" />
    <glyph glyph-name="L#0" unicode="L" horiz-adv-x="565" 
d="M90 0v714h151v-589h290v-125h-441z" />
    <glyph glyph-name="M#0" unicode="M" horiz-adv-x="943" 
d="M392 0l-172 560h-4l3 -60t4 -85.5t2 -82.5v-332h-135v714h206l169 -546h3l179 546h206v-714h-141v338q0 34 1.5 78t3 83.5t2.5 59.5h-4l-184 -559h-139z" />
    <glyph glyph-name="N#0" unicode="N" horiz-adv-x="813" 
d="M723 0h-192l-311 540h-4q2 -51 4.5 -102t4.5 -102v-336h-135v714h191l310 -535h3q-1 50 -3 99l-4 98v338h136v-714z" />
    <glyph glyph-name="O#0" unicode="O" horiz-adv-x="796" 
d="M738 358q0 -111 -36.5 -193.5t-111.5 -128.5t-192 -46q-116 0 -191.5 46t-112 129t-36.5 194q0 110 36.5 192.5t112 128t192.5 45.5q116 0 191 -45.5t111.5 -128t36.5 -193.5zM217 358q0 -112 43 -176.5t138 -64.5q97 0 139 64.5t42 176.5q0 113 -42 177t-138 64
t-139 -64t-43 -177z" />
    <glyph glyph-name="P#0" unicode="P" horiz-adv-x="628" 
d="M318 714q138 0 201.5 -59.5t63.5 -163.5q0 -62 -26 -116.5t-86.5 -87.5t-164.5 -33h-65v-254h-151v714h228zM310 590h-69v-212h50q64 0 101.5 25.5t37.5 82.5q0 104 -120 104z" />
    <glyph glyph-name="Q#0" unicode="Q" horiz-adv-x="796" 
d="M738 358q0 -120 -43 -207.5t-133 -128.5l172 -192h-194l-131 160h-11q-116 0 -191.5 46t-112 129t-36.5 194q0 110 36.5 192.5t112 128t192.5 45.5q116 0 191 -45.5t111.5 -128t36.5 -193.5zM217 358q0 -112 43 -176.5t138 -64.5q97 0 139 64.5t42 176.5q0 113 -42 177
t-138 64t-139 -64t-43 -177z" />
    <glyph glyph-name="R#0" unicode="R" horiz-adv-x="660" 
d="M298 714q146 0 215.5 -53t69.5 -161q0 -49 -18.5 -85.5t-49 -62t-65.5 -41.5l210 -311h-168l-170 274h-81v-274h-151v714h208zM287 590h-46v-193h49q75 0 107.5 25t32.5 74q0 51 -34.5 72.5t-108.5 21.5z" />
    <glyph glyph-name="S#0" unicode="S" horiz-adv-x="551" 
d="M511 198q0 -95 -68.5 -151.5t-194.5 -56.5q-113 0 -202 43v141q51 -22 105.5 -40.5t108.5 -18.5q56 0 79.5 21.5t23.5 54.5q0 27 -18.5 46t-49.5 35.5t-71 35.5q-25 12 -54 28.5t-55.5 41t-43.5 59.5t-17 84q0 96 65 149.5t177 53.5q56 0 106.5 -13t105.5 -37l-49 -118
q-49 20 -88 31t-80 11q-43 0 -66 -20t-23 -52q0 -38 34 -60t101 -54q55 -26 93.5 -54t59.5 -66t21 -94z" />
    <glyph glyph-name="T#0" unicode="T" horiz-adv-x="579" 
d="M365 0h-151v588h-194v126h539v-126h-194v-588z" />
    <glyph glyph-name="U#0" unicode="U" horiz-adv-x="756" 
d="M671 714v-462q0 -74 -32.5 -133.5t-98 -94t-165.5 -34.5q-142 0 -216 72.5t-74 191.5v460h151v-437q0 -88 36 -124t107 -36q74 0 107.5 39t33.5 122v436h151z" />
    <glyph glyph-name="V#0" unicode="V" horiz-adv-x="650" 
d="M650 714l-243 -714h-165l-242 714h153l134 -425q4 -11 11.5 -40.5t15.5 -62.5t11 -54q3 21 10.5 54t15 62.5t11.5 40.5l135 425h153z" />
    <glyph glyph-name="W#0" unicode="W" horiz-adv-x="967" 
d="M967 714l-182 -714h-172l-97 375q-3 11 -7.5 33t-10 48t-9.5 49.5t-6 36.5q-1 -13 -5.5 -36.5t-9.5 -49t-10 -48t-8 -34.5l-96 -374h-172l-182 714h149l91 -390q6 -23 13 -58t13 -70t9 -59q3 25 9 59.5t12.5 67t11.5 50.5l104 400h143l104 -400q5 -17 11.5 -50t12.5 -68
t9 -59q3 24 9 59t13 70t13 58l91 390h149z" />
    <glyph glyph-name="X#0" unicode="X" horiz-adv-x="667" 
d="M667 0h-173l-166 270l-166 -270h-162l237 368l-222 346h167l154 -257l151 257h163l-224 -354z" />
    <glyph glyph-name="Y#0" unicode="Y" horiz-adv-x="624" 
d="M312 420l149 294h163l-237 -436v-278h-150v273l-237 441h164z" />
    <glyph glyph-name="Z#0" unicode="Z" horiz-adv-x="579" 
d="M555 0h-531v98l342 491h-333v125h513v-98l-342 -491h351v-125z" />
    <glyph glyph-name="bracketleft#0" unicode="[" horiz-adv-x="331" 
d="M306 -158h-236v872h236v-103h-109v-666h109v-103z" />
    <glyph glyph-name="backslash#0" unicode="\" horiz-adv-x="413" 
d="M141 714l266 -714h-135l-266 714h135z" />
    <glyph glyph-name="bracketright#0" unicode="]" horiz-adv-x="331" 
d="M25 -55h109v666h-109v103h236v-872h-236v103z" />
    <glyph glyph-name="asciicircum#0" unicode="^" horiz-adv-x="572" 
d="M23 254l214 464h70l242 -464h-117l-157 314l-137 -314h-115z" />
    <glyph glyph-name="underscore#0" unicode="_" horiz-adv-x="411" 
d="M413 -158h-415v68h415v-68z" />
    <glyph glyph-name="grave#0" unicode="`" horiz-adv-x="362" 
d="M207 766q15 -22 35.5 -49.5t42 -53.5t37.5 -44v-13h-99q-19 13 -44.5 32.5t-52 41.5t-49.5 42t-37 34v10h167z" />
    <glyph glyph-name="a#0" unicode="a" horiz-adv-x="604" 
d="M302 557q110 0 168.5 -47.5t58.5 -145.5v-364h-104l-29 74h-4q-35 -44 -74 -64t-107 -20q-73 0 -121 42.5t-48 130.5q0 87 61 128.5t183 45.5l95 3v24q0 43 -22.5 63t-62.5 20t-78 -11.5t-76 -28.5l-49 101q44 23 97.5 36t111.5 13zM381 253l-58 -2q-72 -2 -100 -26
t-28 -63q0 -34 20 -48.5t52 -14.5q48 0 81 28.5t33 80.5v45z" />
    <glyph glyph-name="b#0" unicode="b" horiz-adv-x="633" 
d="M227 760v-177q0 -31 -2 -61t-4 -47h6q22 34 59 57.5t96 23.5q92 0 149 -71.5t57 -210.5q0 -140 -58 -212t-152 -72q-60 0 -94.5 21.5t-56.5 48.5h-10l-25 -60h-114v760h149zM334 437q-58 0 -81.5 -36t-25.5 -110v-16q0 -79 23.5 -121.5t85.5 -42.5q46 0 73 42.5t27 122.5
t-27.5 120.5t-74.5 40.5z" />
    <glyph glyph-name="c#0" unicode="c" horiz-adv-x="514" 
d="M300 -10q-122 0 -188.5 67.5t-66.5 212.5q0 100 34 163t94.5 93t139.5 30q56 0 97.5 -11t72.5 -26l-44 -115q-35 14 -65.5 23t-60.5 9q-116 0 -116 -165q0 -82 30.5 -121t85.5 -39q47 0 83 12.5t70 34.5v-127q-34 -22 -71.5 -31.5t-94.5 -9.5z" />
    <glyph glyph-name="d#0" unicode="d" horiz-adv-x="633" 
d="M251 -10q-91 0 -148.5 71.5t-57.5 210.5q0 140 58 212t152 72q59 0 97 -23t60 -57h5q-3 16 -7 46.5t-4 62.5v175h149v-760h-114l-29 71h-6q-22 -34 -59 -57.5t-96 -23.5zM303 109q62 0 87 36.5t26 109.5v16q0 80 -24.5 122t-90.5 42q-49 0 -77 -42.5t-28 -122.5
t28 -120.5t79 -40.5z" />
    <glyph glyph-name="e#0" unicode="e" horiz-adv-x="591" 
d="M303 556q113 0 179 -64.5t66 -183.5v-72h-352q2 -63 37.5 -99t98.5 -36q53 0 96 10.5t89 32.5v-115q-40 -20 -84.5 -29.5t-107.5 -9.5q-82 0 -145 30.5t-99 92.5t-36 156q0 95 32.5 159t90.5 96t135 32zM304 450q-43 0 -71.5 -28t-33.5 -87h209q-1 50 -26 82.5t-78 32.5z
" />
    <glyph glyph-name="f#0" unicode="f" horiz-adv-x="387" 
d="M380 434h-129v-434h-149v434h-82v72l82 40v40q0 69 23.5 108t67 55t102.5 16q44 0 79.5 -7t57.5 -16l-38 -109q-17 5 -37 9.5t-46 4.5q-31 0 -45.5 -19t-14.5 -48v-34h129v-112z" />
    <glyph glyph-name="g#0" unicode="g" horiz-adv-x="633" 
d="M255 556q101 0 158 -80h4l12 70h126v-547q0 -117 -69 -178t-204 -61q-58 0 -107.5 7t-96.5 25v119q101 -42 213 -42q115 0 115 124v11q0 17 1.5 35t2.5 32h-4q-28 -43 -67 -62t-88 -19q-97 0 -151.5 74.5t-54.5 207.5q0 134 56 209t154 75zM302 435q-105 0 -105 -165
q0 -163 107 -163q57 0 84.5 32.5t27.5 113.5v18q0 88 -27 126t-87 38z" />
    <glyph glyph-name="h#0" unicode="h" horiz-adv-x="657" 
d="M227 760v-155q0 -40 -2.5 -77t-4.5 -52h8q26 42 67 61t91 19q89 0 142.5 -47.5t53.5 -152.5v-356h-149v319q0 118 -88 118q-67 0 -92.5 -46.5t-25.5 -133.5v-257h-149v760h149z" />
    <glyph glyph-name="i#0" unicode="i" horiz-adv-x="305" 
d="M153 760q33 0 57 -15.5t24 -57.5q0 -41 -24 -57t-57 -16q-34 0 -57.5 16t-23.5 57q0 42 23.5 57.5t57.5 15.5zM227 546v-546h-149v546h149z" />
    <glyph glyph-name="j#0" unicode="j" horiz-adv-x="305" 
d="M72 687q0 42 23.5 57.5t57.5 15.5q33 0 57 -15.5t24 -57.5q0 -41 -24 -57t-57 -16q-34 0 -57.5 16t-23.5 57zM34 -240q-25 0 -52.5 3.5t-45.5 8.5v117q18 -4 34 -6.5t36 -2.5q30 0 51 17t21 66v583h149v-605q0 -50 -19 -91t-61.5 -65.5t-112.5 -24.5z" />
    <glyph glyph-name="k#0" unicode="k" horiz-adv-x="620" 
d="M227 760v-340q0 -31 -2.5 -61.5t-5.5 -61.5h2q15 21 31 42.5t34 40.5l153 166h168l-217 -237l230 -309h-172l-157 221l-64 -51v-170h-149v760h149z" />
    <glyph glyph-name="l#0" unicode="l" horiz-adv-x="305" 
d="M227 0h-149v760h149v-760z" />
    <glyph glyph-name="m#0" unicode="m" horiz-adv-x="982" 
d="M719 556q93 0 140.5 -47.5t47.5 -152.5v-356h-149v319q0 118 -82 118q-59 0 -84 -42t-25 -121v-274h-149v319q0 118 -82 118q-62 0 -85.5 -46.5t-23.5 -133.5v-257h-149v546h114l20 -70h8q25 42 68.5 61t90.5 19q60 0 102 -19.5t64 -60.5h13q25 42 69.5 61t91.5 19z" />
    <glyph glyph-name="n#0" unicode="n" horiz-adv-x="657" 
d="M388 556q88 0 141 -47.5t53 -152.5v-356h-149v319q0 59 -21 88.5t-67 29.5q-68 0 -93 -46.5t-25 -133.5v-257h-149v546h114l20 -70h8q26 42 71.5 61t96.5 19z" />
    <glyph glyph-name="o#0" unicode="o" horiz-adv-x="619" 
d="M574 274q0 -136 -71.5 -210t-194.5 -74q-76 0 -135.5 33t-93.5 96.5t-34 154.5q0 136 71 209t195 73q77 0 136 -33t93 -95.5t34 -153.5zM197 274q0 -81 26.5 -122.5t86.5 -41.5q59 0 85.5 41.5t26.5 122.5t-26.5 121.5t-86.5 40.5q-59 0 -85.5 -40.5t-26.5 -121.5z" />
    <glyph glyph-name="p#0" unicode="p" horiz-adv-x="633" 
d="M382 556q92 0 149 -71.5t57 -210.5t-59 -211.5t-151 -72.5q-59 0 -94 21.5t-57 48.5h-8q8 -42 8 -80v-220h-149v786h121l21 -71h7q22 33 59 57t96 24zM334 437q-58 0 -81.5 -36t-25.5 -110v-16q0 -79 23.5 -121.5t85.5 -42.5q51 0 75.5 42.5t24.5 122.5q0 161 -102 161z
" />
    <glyph glyph-name="q#0" unicode="q" horiz-adv-x="633" 
d="M406 -240v229q0 42 6 82h-6q-21 -34 -58 -57.5t-97 -23.5q-92 0 -149 71.5t-57 210.5q0 140 58 212t151 72q60 0 97.5 -23t60.5 -57h4l13 70h126v-786h-149zM304 107q62 0 86.5 36.5t25.5 109.5v18q0 80 -24.5 122t-89.5 42q-53 0 -79 -42.5t-26 -122.5q0 -163 107 -163z
" />
    <glyph glyph-name="r#0" unicode="r" horiz-adv-x="454" 
d="M383 556q11 0 26 -1t24 -3l-11 -140q-7 2 -20.5 3.5t-23.5 1.5q-38 0 -73 -13.5t-56.5 -43.5t-21.5 -82v-278h-149v546h113l22 -92h7q24 42 66 72t97 30z" />
    <glyph glyph-name="s#0" unicode="s" horiz-adv-x="497" 
d="M459 162q0 -83 -58.5 -127.5t-174.5 -44.5q-57 0 -98 7.5t-82 24.5v123q44 -20 95 -33t90 -13q44 0 62.5 13t18.5 34q0 14 -7.5 25t-32.5 25t-78 36q-51 21 -84 43t-49 52.5t-16 76.5q0 76 59 114t157 38q51 0 97 -10t95 -33l-45 -107q-40 17 -76 28.5t-73 11.5
q-66 0 -66 -36q0 -13 8.5 -23.5t33 -22.5t72.5 -32q47 -19 81 -39.5t52.5 -51.5t18.5 -79z" />
    <glyph glyph-name="t#0" unicode="t" horiz-adv-x="434" 
d="M308 109q25 0 48 5t46 12v-111q-24 -10 -59.5 -17.5t-77.5 -7.5q-49 0 -87.5 16t-61 55.5t-22.5 109.5v263h-71v63l82 50l43 115h95v-116h153v-112h-153v-263q0 -31 18 -46.5t47 -15.5z" />
    <glyph glyph-name="u#0" unicode="u" horiz-adv-x="657" 
d="M579 546v-546h-114l-20 70h-8q-26 -42 -71.5 -61t-96.5 -19q-88 0 -141 47.5t-53 152.5v356h149v-319q0 -58 21 -88t67 -30q68 0 93 46.5t25 133.5v257h149z" />
    <glyph glyph-name="v#0" unicode="v" horiz-adv-x="569" 
d="M208 0l-208 546h156l105 -311q9 -28 14.5 -58t6.5 -54h4q3 54 22 112l105 311h156l-208 -546h-153z" />
    <glyph glyph-name="w#0" unicode="w" horiz-adv-x="856" 
d="M527 0l-42 191q-4 17 -11.5 50.5t-16.5 72t-17 71t-11 47.5h-4q-3 -15 -10.5 -47.5t-16.5 -71t-17 -72.5t-12 -52l-44 -189h-160l-155 546h148l63 -242q6 -25 12 -60t10.5 -67.5t7.5 -51.5h4q1 14 4 37.5t7.5 48.5t8 45.5t5.5 27.5l67 262h164l64 -262q3 -14 9 -45
t10.5 -63.5t4.5 -50.5h4q2 17 7 49.5t11.5 68.5t13.5 61l65 242h146l-157 -546h-162z" />
    <glyph glyph-name="x#0" unicode="x" horiz-adv-x="578" 
d="M190 279l-176 267h169l106 -174l107 174h169l-178 -267l186 -279h-169l-115 187l-115 -187h-169z" />
    <glyph glyph-name="y#0" unicode="y" horiz-adv-x="569" 
d="M0 546h163l103 -307q8 -22 12 -45.5t6 -49.5h3q3 26 8.5 49.5t12.5 45.5l101 307h160l-231 -616q-31 -85 -90.5 -127.5t-137.5 -42.5q-25 0 -43.5 2.5t-32.5 5.5v118q11 -2 26.5 -4t32.5 -2q47 0 74.5 28.5t40.5 68.5l9 27z" />
    <glyph glyph-name="z#0" unicode="z" horiz-adv-x="488" 
d="M458 0h-431v88l253 344h-238v114h407v-97l-246 -335h255v-114z" />
    <glyph glyph-name="braceleft#0" unicode="{" horiz-adv-x="394" 
d="M354 -158q-85 0 -131.5 14t-64.5 44t-18 78v154q0 47 -32 67t-93 20v117q61 0 93 20t32 67v155q0 48 18 78t64.5 44t131.5 14v-110q-39 -1 -62 -14t-23 -55v-146q0 -91 -114 -108v-6q114 -17 114 -108v-146q0 -42 23 -55t62 -14v-110z" />
    <glyph glyph-name="bar#0" unicode="|" horiz-adv-x="551" 
d="M222 757h107v-984h-107v984z" />
    <glyph glyph-name="braceright#0" unicode="}" horiz-adv-x="394" 
d="M40 -158v110q39 1 62 14t23 55v146q0 91 114 108v6q-114 17 -114 108v146q0 42 -23 55t-62 14v110q86 0 132 -14t64 -44t18 -78v-155q0 -47 32 -67t93 -20v-117q-61 0 -93 -20t-32 -67v-154q0 -48 -18 -78t-64 -44t-132 -14z" />
    <glyph glyph-name="asciitilde#0" unicode="~" horiz-adv-x="572" 
d="M268 301q-37 16 -62.5 21.5t-48.5 5.5q-28 0 -58.5 -17t-55.5 -42v113q50 53 125 53q29 0 58.5 -5.5t76.5 -25.5q37 -16 63 -21.5t48 -5.5q29 0 59 17t55 42v-113q-50 -53 -125 -53q-29 0 -58.5 6t-76.5 25z" />
    <glyph glyph-name="uni00A0#0" unicode="&#xa0;" horiz-adv-x="260" 
 />
    <glyph glyph-name="exclamdown#0" unicode="&#xa1;" horiz-adv-x="286" 
d="M228 463q0 -46 -25 -64.5t-61 -18.5q-34 0 -59.5 18.5t-25.5 64.5q0 44 25.5 63.5t59.5 19.5q36 0 61 -19.5t25 -63.5zM82 296h119l25 -476h-169z" />
    <glyph glyph-name="cent#0" unicode="&#xa2;" horiz-adv-x="572" 
d="M362 724v-77q47 -2 82.5 -12t63.5 -24l-44 -115q-35 14 -65.5 23t-60.5 9q-116 0 -116 -165q0 -82 30.5 -121t85.5 -39q47 0 80.5 10t72.5 27v-124q-31 -15 -62.5 -23.5t-66.5 -10.5v-92h-87v96q-97 14 -151 80t-54 196q0 94 25.5 152.5t72 89t107.5 39.5v81h87z" />
    <glyph glyph-name="sterling#0" unicode="&#xa3;" horiz-adv-x="572" 
d="M342 724q54 0 102.5 -11.5t87.5 -28.5l-45 -112q-34 14 -68 22.5t-65 8.5q-32 0 -55.5 -18.5t-23.5 -65.5v-94h183v-107h-183v-70q0 -53 -24 -80t-50 -41h351v-127h-512v121q41 18 64.5 43.5t23.5 82.5v71h-87v107h87v95q0 74 29 118.5t77.5 65t107.5 20.5z" />
    <glyph glyph-name="currency#0" unicode="&#xa4;" horiz-adv-x="572" 
d="M92 353q0 26 7 50.5t19 45.5l-63 62l72 72l62 -62q21 12 46 19t50 7q51 0 96 -27l62 63l73 -70l-63 -63q12 -20 19 -45.5t7 -51.5q0 -53 -26 -97l61 -61l-71 -71l-62 61q-21 -11 -45.5 -18t-50.5 -7q-56 0 -97 25l-61 -60l-71 71l62 61q-26 44 -26 96zM193 353
q0 -38 27 -65t65 -27q39 0 66.5 27t27.5 65q0 39 -27.5 66t-66.5 27q-38 0 -65 -27t-27 -66z" />
    <glyph glyph-name="yen#0" unicode="&#xa5;" horiz-adv-x="572" 
d="M285 420l129 294h153l-187 -365h95v-87h-120v-67h120v-87h-120v-108h-140v108h-121v87h121v67h-121v87h93l-184 365h154z" />
    <glyph glyph-name="brokenbar#0" unicode="&#xa6;" horiz-adv-x="551" 
d="M222 757h107v-398h-107v398zM222 171h107v-398h-107v398z" />
    <glyph glyph-name="section#0" unicode="&#xa7;" horiz-adv-x="486" 
d="M59 391q0 43 19.5 73t45.5 48q-31 20 -48 48t-17 65q0 63 54.5 101.5t143.5 38.5q50 0 93 -11.5t84 -29.5l-40 -93q-33 16 -67.5 28.5t-72.5 12.5q-40 0 -58 -11t-18 -34q0 -25 24.5 -42t79.5 -39q70 -28 112.5 -67t42.5 -98q0 -49 -17 -78.5t-44 -47.5q30 -19 45.5 -45
t15.5 -62q0 -72 -58 -115t-157 -43q-53 0 -94.5 10t-75.5 29v101q38 -19 85.5 -33.5t84.5 -14.5q55 0 75 16.5t20 40.5q0 17 -7.5 29t-29 24.5t-64.5 30.5q-50 21 -85 42.5t-53.5 51.5t-18.5 74zM168 402q0 -30 27.5 -53.5t85.5 -47.5l7 -3q14 11 26 28t12 42q0 30 -23 53.5
t-91 47.5q-17 -7 -30.5 -24.5t-13.5 -42.5z" />
    <glyph glyph-name="dieresis#0" unicode="&#xa8;" horiz-adv-x="607" 
d="M136 686q0 35 20 50.5t48 15.5t48.5 -15.5t20.5 -50.5q0 -33 -20.5 -49t-48.5 -16t-48 16t-20 49zM333 686q0 35 20 50.5t49 15.5q28 0 48.5 -15.5t20.5 -50.5q0 -33 -20.5 -49t-48.5 -16q-29 0 -49 16t-20 49z" />
    <glyph glyph-name="copyright#0" unicode="&#xa9;" horiz-adv-x="832" 
d="M416 -10q-80 0 -147 27t-116.5 76.5t-76.5 116.5t-27 147q0 76 27.5 142.5t77.5 117t117 79t145 28.5q76 0 142.5 -27t117 -76.5t79 -116.5t28.5 -147t-27 -147t-76.5 -116.5t-116.5 -76.5t-147 -27zM416 54q82 0 149.5 39t107.5 107.5t40 156.5q0 63 -22.5 118t-62.5 97
t-94.5 65.5t-117.5 23.5q-85 0 -153 -39t-107 -107.5t-39 -157.5q0 -88 38.5 -156.5t105.5 -107.5t155 -39zM431 128q-102 0 -152.5 63t-50.5 166q0 67 24 118.5t70 81t113 29.5q65 0 123 -30l-29 -67q-50 26 -93 26q-59 0 -91.5 -42t-32.5 -116q0 -76 28.5 -117.5
t94.5 -41.5q23 0 51.5 6.5t53.5 16.5v-69q-24 -10 -49 -17t-60 -7z" />
    <glyph glyph-name="ordfeminine#0" unicode="&#xaa;" horiz-adv-x="383" 
d="M200 722q71 0 105.5 -36t34.5 -97v-216h-66l-15 54q-44 -60 -118 -60q-53 0 -85.5 27t-32.5 82q0 59 45 83t126 28l48 2v8q0 49 -62 49q-22 0 -49.5 -8t-56.5 -22l-32 66q32 16 71 28t87 12zM242 531l-48 -3q-44 -3 -57.5 -18.5t-13.5 -32.5q0 -19 11 -27.5t27 -8.5
q38 0 59.5 20.5t21.5 51.5v18z" />
    <glyph glyph-name="guillemotleft#0" unicode="&#xab;" horiz-adv-x="615" 
d="M40 280l181 222l107 -58l-136 -170l136 -170l-107 -58l-181 221v13zM287 280l181 222l107 -58l-136 -170l136 -170l-107 -58l-181 221v13z" />
    <glyph glyph-name="logicalnot#0" unicode="&#xac;" horiz-adv-x="572" 
d="M528 406v-285h-107v178h-378v107h485z" />
    <glyph glyph-name="uni00AD#0" unicode="&#xad;" horiz-adv-x="322" 
d="M30 207v122h262v-122h-262z" />
    <glyph glyph-name="registered#0" unicode="&#xae;" horiz-adv-x="832" 
d="M416 -10q-80 0 -147 27t-116.5 76.5t-76.5 116.5t-27 147q0 76 27.5 142.5t77.5 117t117 79t145 28.5q76 0 142.5 -27t117 -76.5t79 -116.5t28.5 -147t-27 -147t-76.5 -116.5t-116.5 -76.5t-147 -27zM416 54q82 0 149.5 39t107.5 107.5t40 156.5q0 63 -22.5 118t-62.5 97
t-94.5 65.5t-117.5 23.5q-85 0 -153 -39t-107 -107.5t-39 -157.5q0 -88 38.5 -156.5t105.5 -107.5t155 -39zM274 138v442h133q82 0 120 -34.5t38 -99.5q0 -47 -24 -74.5t-54 -39.5l116 -194h-91l-95 168h-62v-168h-81zM355 373h50q39 0 58.5 20t19.5 51q0 35 -17.5 51
t-61.5 16h-49v-138z" />
    <glyph glyph-name="overscore#0" unicode="&#xaf;" horiz-adv-x="500" 
d="M503 760h-506v98h506v-98z" />
    <glyph glyph-name="degree#0" unicode="&#xb0;" horiz-adv-x="428" 
d="M214 387q-51 0 -90.5 21.5t-62 59.5t-22.5 87t22.5 87t62 60t90.5 22q52 0 91 -21.5t61 -59.5t22 -88q0 -49 -22 -87t-61 -59.5t-91 -21.5zM214 480q32 0 54 20.5t22 54.5q0 36 -22 56.5t-54 20.5q-31 0 -53.5 -20.5t-22.5 -56.5q0 -34 22.5 -54.5t53.5 -20.5z" />
    <glyph glyph-name="plusminus#0" unicode="&#xb1;" horiz-adv-x="572" 
d="M43 0v107h485v-107h-485zM339 436h189v-107h-189v-188h-107v188h-189v107h189v190h107v-190z" />
    <glyph glyph-name="uni00B2#0" unicode="&#xb2;" horiz-adv-x="379" 
d="M343 416h-316v82l109 107q45 44 61.5 67.5t16.5 49.5q0 18 -11.5 28t-31.5 10q-39 0 -88 -43l-60 74q32 28 71.5 45.5t92.5 17.5q65 0 104.5 -31.5t39.5 -90.5q0 -45 -25 -82t-84 -90l-51 -46h172v-98z" />
    <glyph glyph-name="uni00B3#0" unicode="&#xb3;" horiz-adv-x="379" 
d="M184 853q61 0 101 -30.5t40 -82.5q0 -34 -19.5 -58.5t-63.5 -38.5v-6q50 -10 73.5 -38.5t23.5 -63.5q0 -59 -43 -93t-134 -34q-71 0 -133 34v93q32 -19 64.5 -31.5t67.5 -12.5q70 0 70 52q0 20 -17 36t-64 16h-55v78h45q51 0 65.5 16.5t14.5 36.5q0 19 -12 31t-37 12
q-23 0 -43.5 -9t-48.5 -29l-49 69q30 23 67 38t87 15z" />
    <glyph glyph-name="acute#0" unicode="&#xb4;" horiz-adv-x="362" 
d="M322 766v-10q-14 -14 -37 -34t-49.5 -42t-52 -41.5t-44.5 -32.5h-99v13q16 18 37.5 44t42 53.5t35.5 49.5h167z" />
    <glyph glyph-name="uni00B5#0" unicode="&#xb5;" horiz-adv-x="660" 
d="M582 546v-546h-113l-21 73h-7q-20 -41 -49.5 -62t-72.5 -21q-61 0 -94 44h-3q2 -10 3 -31.5t1.5 -45t0.5 -41.5v-156h-149v786h149v-319q0 -118 89 -118q67 0 92 46.5t25 133.5v257h149z" />
    <glyph glyph-name="paragraph#0" unicode="&#xb6;" horiz-adv-x="655" 
d="M570 -127h-79v789h-81v-789h-79v400q-30 -9 -71 -9q-62 0 -108 23t-71.5 77t-25.5 145q0 96 27.5 150.5t77 77.5t115.5 23h295v-887z" />
    <glyph glyph-name="periodcentered#0" unicode="&#xb7;" horiz-adv-x="285" 
d="M57 352q0 46 25 64.5t61 18.5q35 0 60 -18.5t25 -64.5q0 -44 -25 -63.5t-60 -19.5q-36 0 -61 19.5t-25 63.5z" />
    <glyph glyph-name="cedilla#0" unicode="&#xb8;" horiz-adv-x="205" 
d="M204 -122q0 -56 -32.5 -87t-118.5 -31q-22 0 -39.5 3t-31.5 7v82q14 -4 34.5 -7t35.5 -3q14 0 24.5 6.5t10.5 23.5q0 18 -18 32t-63 21l38 75h94l-13 -30q30 -10 54.5 -32.5t24.5 -59.5z" />
    <glyph glyph-name="uni00B9#0" unicode="&#xb9;" horiz-adv-x="379" 
d="M285 844v-428h-116v218q0 13 0.5 34t1.5 40.5t2 26.5q-6 -8 -17.5 -19.5t-19.5 -18.5l-38 -30l-53 62l147 115h93z" />
    <glyph glyph-name="ordmasculine#0" unicode="&#xba;" horiz-adv-x="388" 
d="M360 545q0 -85 -45 -131.5t-122 -46.5q-72 0 -118.5 46.5t-46.5 131.5t45 131t122 46q71 0 118 -46t47 -131zM127 545q0 -49 16 -73.5t51 -24.5q66 0 66 98q0 97 -66 97q-35 0 -51 -24t-16 -73z" />
    <glyph glyph-name="guillemotright#0" unicode="&#xbb;" horiz-adv-x="615" 
d="M575 267l-181 -221l-107 58l136 170l-136 170l107 58l181 -222v-13zM328 267l-181 -221l-107 58l136 170l-136 170l107 58l181 -222v-13z" />
    <glyph glyph-name="onequarter#0" unicode="&#xbc;" horiz-adv-x="830" 
d="M156 0l396 714h117l-396 -714h-117zM146 286v218q0 13 0.5 34t1.5 40.5t2 26.5q-6 -8 -17.5 -19.5t-19.5 -18.5l-38 -30l-53 62l147 115h93v-428h-116zM644 0v74h-187v75l188 282h115v-275h61v-82h-61v-74h-116zM547 156h97v80q0 42 3 90q-5 -13 -17 -38t-21 -39z" />
    <glyph glyph-name="onehalf#0" unicode="&#xbd;" horiz-adv-x="874" 
d="M156 0l396 714h117l-396 -714h-117zM146 286v218q0 13 0.5 34t1.5 40.5t2 26.5q-6 -8 -17.5 -19.5t-19.5 -18.5l-38 -30l-53 62l147 115h93v-428h-116zM522 0v82l109 107q45 44 61.5 67.5t16.5 49.5q0 18 -11.5 28t-31.5 10q-39 0 -88 -43l-60 74q32 28 71.5 45.5
t92.5 17.5q65 0 104.5 -31.5t39.5 -90.5q0 -45 -25 -82t-84 -90l-51 -46h172v-98h-316z" />
    <glyph glyph-name="threequarters#0" unicode="&#xbe;" horiz-adv-x="845" 
d="M177 278q-71 0 -133 34v93q32 -19 64.5 -31.5t67.5 -12.5q70 0 70 52q0 20 -17 36t-64 16h-55v78h45q51 0 65.5 16.5t14.5 36.5q0 19 -12 31t-37 12q-23 0 -43.5 -9t-48.5 -29l-49 69q30 23 67 38t87 15q61 0 101 -30.5t40 -82.5q0 -34 -19.5 -58.5t-63.5 -38.5v-6
q50 -10 73.5 -38.5t23.5 -63.5q0 -59 -43 -93t-134 -34zM191 0l396 714h117l-396 -714h-117zM659 0v74h-187v75l188 282h115v-275h61v-82h-61v-74h-116zM562 156h97v80q0 42 3 90q-5 -13 -17 -38t-21 -39z" />
    <glyph glyph-name="questiondown#0" unicode="&#xbf;" horiz-adv-x="477" 
d="M345 295v-36q0 -50 -21 -84t-72 -71q-45 -32 -64.5 -55.5t-19.5 -55.5t23.5 -48.5t65.5 -16.5t83 13t84 35l53 -107q-49 -27 -106 -44t-125 -17q-104 0 -161.5 50t-57.5 127q0 41 13 71t39 55.5t65 54.5q29 22 45 36.5t21.5 29t5.5 34.5v29h129zM361 462q0 -46 -25 -64.5
t-61 -18.5q-35 0 -60 18.5t-25 64.5q0 44 25 63.5t60 19.5q36 0 61 -19.5t25 -63.5z" />
    <glyph glyph-name="Agrave#0" unicode="&#xc0;" horiz-adv-x="690" 
d="M527 0l-52 170h-260l-52 -170h-163l252 717h185l253 -717h-163zM439 297l-52 166q-5 17 -13 43t-16 53t-13 47q-5 -20 -13.5 -49.5t-16 -56t-11.5 -37.5l-51 -166h186zM321 934q15 -22 35.5 -49.5t42 -53.5t37.5 -44v-13h-99q-19 13 -44.5 32.5t-52 41.5t-49.5 42t-37 34
v10h167z" />
    <glyph glyph-name="Aacute#0" unicode="&#xc1;" horiz-adv-x="690" 
d="M527 0l-52 170h-260l-52 -170h-163l252 717h185l253 -717h-163zM439 297l-52 166q-5 17 -13 43t-16 53t-13 47q-5 -20 -13.5 -49.5t-16 -56t-11.5 -37.5l-51 -166h186zM537 934v-10q-14 -14 -37 -34t-49.5 -42t-52 -41.5t-44.5 -32.5h-99v13q16 18 37.5 44t42 53.5
t35.5 49.5h167z" />
    <glyph glyph-name="Acircumflex#0" unicode="&#xc2;" horiz-adv-x="690" 
d="M527 0l-52 170h-260l-52 -170h-163l252 717h185l253 -717h-163zM439 297l-52 166q-5 17 -13 43t-16 53t-13 47q-5 -20 -13.5 -49.5t-16 -56t-11.5 -37.5l-51 -166h186zM433 934q14 -22 36.5 -49.5t46.5 -53.5t42 -44v-13h-99q-26 16 -57 37.5t-57 48.5q-26 -27 -56 -48
t-56 -38h-99v13q18 18 42 44t46.5 53.5t36.5 49.5h174z" />
    <glyph glyph-name="Atilde#0" unicode="&#xc3;" horiz-adv-x="690" 
d="M527 0l-52 170h-260l-52 -170h-163l252 717h185l253 -717h-163zM439 297l-52 166q-5 17 -13 43t-16 53t-13 47q-5 -20 -13.5 -49.5t-16 -56t-11.5 -37.5l-51 -166h186zM142 773q6 78 43.5 114.5t89.5 36.5q27 0 52.5 -13t50 -25.5t47.5 -12.5q15 0 29 13t20 39h73
q-6 -77 -44 -114t-89 -37q-26 0 -51.5 12.5t-50 25.5t-48.5 13q-15 0 -29 -13t-20 -39h-73z" />
    <glyph glyph-name="Adieresis#0" unicode="&#xc4;" horiz-adv-x="690" 
d="M527 0l-52 170h-260l-52 -170h-163l252 717h185l253 -717h-163zM439 297l-52 166q-5 17 -13 43t-16 53t-13 47q-5 -20 -13.5 -49.5t-16 -56t-11.5 -37.5l-51 -166h186zM177 854q0 35 20 50.5t48 15.5t48.5 -15.5t20.5 -50.5q0 -33 -20.5 -49t-48.5 -16t-48 16t-20 49z
M374 854q0 35 20 50.5t49 15.5q28 0 48.5 -15.5t20.5 -50.5q0 -33 -20.5 -49t-48.5 -16q-29 0 -49 16t-20 49z" />
    <glyph glyph-name="Aring#0" unicode="&#xc5;" horiz-adv-x="690" 
d="M527 0l-52 170h-260l-52 -170h-163l252 717h185l253 -717h-163zM439 297l-52 166q-5 17 -13 43t-16 53t-13 47q-5 -20 -13.5 -49.5t-16 -56t-11.5 -37.5l-51 -166h186zM344 648q-54 0 -87.5 31t-33.5 85t33.5 85t87.5 31q52 0 88 -31t36 -84q0 -55 -35.5 -86t-88.5 -31z
M344 717q20 0 33.5 12.5t13.5 34.5t-13.5 34.5t-33.5 12.5t-33.5 -12.5t-13.5 -34.5t12 -34.5t35 -12.5z" />
    <glyph glyph-name="AE#0" unicode="&#xc6;" horiz-adv-x="952" 
d="M893 0h-426v170h-240l-73 -170h-154l320 714h573v-124h-275v-157h257v-124h-257v-184h275v-125zM282 297h185v288h-62z" />
    <glyph glyph-name="Ccedilla#0" unicode="&#xc7;" horiz-adv-x="637" 
d="M393 598q-87 0 -133 -65t-46 -178q0 -114 42.5 -176.5t136.5 -62.5q44 0 87.5 10t94.5 28v-127q-47 -19 -93 -28t-103 -9q-110 0 -181.5 45.5t-105.5 128t-34 192.5q0 108 39 191t113.5 130t182.5 47q53 0 106.5 -13.5t102.5 -36.5l-49 -123q-40 19 -80.5 33t-79.5 14z
M486 -122q0 -56 -32.5 -87t-118.5 -31q-22 0 -39.5 3t-31.5 7v82q14 -4 34.5 -7t35.5 -3q14 0 24.5 6.5t10.5 23.5q0 18 -18 32t-63 21l38 75h94l-13 -30q30 -10 54.5 -32.5t24.5 -59.5z" />
    <glyph glyph-name="Egrave#0" unicode="&#xc8;" horiz-adv-x="560" 
d="M501 0h-411v714h411v-124h-260v-157h242v-124h-242v-184h260v-125zM277 934q15 -22 35.5 -49.5t42 -53.5t37.5 -44v-13h-99q-19 13 -44.5 32.5t-52 41.5t-49.5 42t-37 34v10h167z" />
    <glyph glyph-name="Eacute#0" unicode="&#xc9;" horiz-adv-x="560" 
d="M501 0h-411v714h411v-124h-260v-157h242v-124h-242v-184h260v-125zM493 934v-10q-14 -14 -37 -34t-49.5 -42t-52 -41.5t-44.5 -32.5h-99v13q16 18 37.5 44t42 53.5t35.5 49.5h167z" />
    <glyph glyph-name="Ecircumflex#0" unicode="&#xca;" horiz-adv-x="560" 
d="M501 0h-411v714h411v-124h-260v-157h242v-124h-242v-184h260v-125zM389 934q14 -22 36.5 -49.5t46.5 -53.5t42 -44v-13h-99q-26 16 -57 37.5t-57 48.5q-26 -27 -56 -48t-56 -38h-99v13q18 18 42 44t46.5 53.5t36.5 49.5h174z" />
    <glyph glyph-name="Edieresis#0" unicode="&#xcb;" horiz-adv-x="560" 
d="M501 0h-411v714h411v-124h-260v-157h242v-124h-242v-184h260v-125zM133 854q0 35 20 50.5t48 15.5t48.5 -15.5t20.5 -50.5q0 -33 -20.5 -49t-48.5 -16t-48 16t-20 49zM330 854q0 35 20 50.5t49 15.5q28 0 48.5 -15.5t20.5 -50.5q0 -33 -20.5 -49t-48.5 -16q-29 0 -49 16
t-20 49z" />
    <glyph glyph-name="Igrave.salt#0" horiz-adv-x="389" 
d="M357 0h-325v86l87 40v462l-87 40v86h325v-86l-87 -40v-462l87 -40v-86zM171 934q15 -22 35.5 -49.5t42 -53.5t37.5 -44v-13h-99q-19 13 -44.5 32.5t-52 41.5t-49.5 42t-37 34v10h167z" />
    <glyph glyph-name="Iacute.salt#0" horiz-adv-x="389" 
d="M357 0h-325v86l87 40v462l-87 40v86h325v-86l-87 -40v-462l87 -40v-86zM387 934v-10q-14 -14 -37 -34t-49.5 -42t-52 -41.5t-44.5 -32.5h-99v13q16 18 37.5 44t42 53.5t35.5 49.5h167z" />
    <glyph glyph-name="Icircumflex.salt#0" horiz-adv-x="389" 
d="M357 0h-325v86l87 40v462l-87 40v86h325v-86l-87 -40v-462l87 -40v-86zM283 934q14 -22 36.5 -49.5t46.5 -53.5t42 -44v-13h-99q-26 16 -57 37.5t-57 48.5q-26 -27 -56 -48t-56 -38h-99v13q18 18 42 44t46.5 53.5t36.5 49.5h174z" />
    <glyph glyph-name="Idieresis.salt#0" horiz-adv-x="389" 
d="M357 0h-325v86l87 40v462l-87 40v86h325v-86l-87 -40v-462l87 -40v-86zM27 854q0 35 20 50.5t48 15.5t48.5 -15.5t20.5 -50.5q0 -33 -20.5 -49t-48.5 -16t-48 16t-20 49zM224 854q0 35 20 50.5t49 15.5q28 0 48.5 -15.5t20.5 -50.5q0 -33 -20.5 -49t-48.5 -16
q-29 0 -49 16t-20 49z" />
    <glyph glyph-name="Eth#0" unicode="&#xd0;" horiz-adv-x="740" 
d="M314 714q112 0 194.5 -40t128 -117.5t45.5 -192.5q0 -181 -102.5 -272.5t-287.5 -91.5h-202v291h-67v124h67v299h224zM321 590h-80v-175h116v-124h-116v-166h64q220 0 220 235q0 119 -53 174.5t-151 55.5z" />
    <glyph glyph-name="Ntilde#0" unicode="&#xd1;" horiz-adv-x="813" 
d="M723 0h-192l-311 540h-4q2 -51 4.5 -102t4.5 -102v-336h-135v714h191l310 -535h3q-1 50 -3 99l-4 98v338h136v-714zM204 773q6 78 43.5 114.5t89.5 36.5q27 0 52.5 -13t50 -25.5t47.5 -12.5q15 0 29 13t20 39h73q-6 -77 -44 -114t-89 -37q-26 0 -51.5 12.5t-50 25.5
t-48.5 13q-15 0 -29 -13t-20 -39h-73z" />
    <glyph glyph-name="Ograve#0" unicode="&#xd2;" horiz-adv-x="796" 
d="M738 358q0 -111 -36.5 -193.5t-111.5 -128.5t-192 -46q-116 0 -191.5 46t-112 129t-36.5 194q0 110 36.5 192.5t112 128t192.5 45.5q116 0 191 -45.5t111.5 -128t36.5 -193.5zM217 358q0 -112 43 -176.5t138 -64.5q97 0 139 64.5t42 176.5q0 113 -42 177t-138 64
t-139 -64t-43 -177zM374 934q15 -22 35.5 -49.5t42 -53.5t37.5 -44v-13h-99q-19 13 -44.5 32.5t-52 41.5t-49.5 42t-37 34v10h167z" />
    <glyph glyph-name="Oacute#0" unicode="&#xd3;" horiz-adv-x="796" 
d="M738 358q0 -111 -36.5 -193.5t-111.5 -128.5t-192 -46q-116 0 -191.5 46t-112 129t-36.5 194q0 110 36.5 192.5t112 128t192.5 45.5q116 0 191 -45.5t111.5 -128t36.5 -193.5zM217 358q0 -112 43 -176.5t138 -64.5q97 0 139 64.5t42 176.5q0 113 -42 177t-138 64
t-139 -64t-43 -177zM590 934v-10q-14 -14 -37 -34t-49.5 -42t-52 -41.5t-44.5 -32.5h-99v13q16 18 37.5 44t42 53.5t35.5 49.5h167z" />
    <glyph glyph-name="Ocircumflex#0" unicode="&#xd4;" horiz-adv-x="796" 
d="M738 358q0 -111 -36.5 -193.5t-111.5 -128.5t-192 -46q-116 0 -191.5 46t-112 129t-36.5 194q0 110 36.5 192.5t112 128t192.5 45.5q116 0 191 -45.5t111.5 -128t36.5 -193.5zM217 358q0 -112 43 -176.5t138 -64.5q97 0 139 64.5t42 176.5q0 113 -42 177t-138 64
t-139 -64t-43 -177zM486 934q14 -22 36.5 -49.5t46.5 -53.5t42 -44v-13h-99q-26 16 -57 37.5t-57 48.5q-26 -27 -56 -48t-56 -38h-99v13q18 18 42 44t46.5 53.5t36.5 49.5h174z" />
    <glyph glyph-name="Otilde#0" unicode="&#xd5;" horiz-adv-x="796" 
d="M738 358q0 -111 -36.5 -193.5t-111.5 -128.5t-192 -46q-116 0 -191.5 46t-112 129t-36.5 194q0 110 36.5 192.5t112 128t192.5 45.5q116 0 191 -45.5t111.5 -128t36.5 -193.5zM217 358q0 -112 43 -176.5t138 -64.5q97 0 139 64.5t42 176.5q0 113 -42 177t-138 64
t-139 -64t-43 -177zM195 773q6 78 43.5 114.5t89.5 36.5q27 0 52.5 -13t50 -25.5t47.5 -12.5q15 0 29 13t20 39h73q-6 -77 -44 -114t-89 -37q-26 0 -51.5 12.5t-50 25.5t-48.5 13q-15 0 -29 -13t-20 -39h-73z" />
    <glyph glyph-name="Odieresis#0" unicode="&#xd6;" horiz-adv-x="796" 
d="M738 358q0 -111 -36.5 -193.5t-111.5 -128.5t-192 -46q-116 0 -191.5 46t-112 129t-36.5 194q0 110 36.5 192.5t112 128t192.5 45.5q116 0 191 -45.5t111.5 -128t36.5 -193.5zM217 358q0 -112 43 -176.5t138 -64.5q97 0 139 64.5t42 176.5q0 113 -42 177t-138 64
t-139 -64t-43 -177zM230 854q0 35 20 50.5t48 15.5t48.5 -15.5t20.5 -50.5q0 -33 -20.5 -49t-48.5 -16t-48 16t-20 49zM427 854q0 35 20 50.5t49 15.5q28 0 48.5 -15.5t20.5 -50.5q0 -33 -20.5 -49t-48.5 -16q-29 0 -49 16t-20 49z" />
    <glyph glyph-name="multiply#0" unicode="&#xd7;" horiz-adv-x="572" 
d="M433 575l75 -73l-149 -149l147 -148l-73 -74l-149 147l-147 -146l-73 74l145 147l-146 147l74 75l147 -146z" />
    <glyph glyph-name="Oslash#0" unicode="&#xd8;" horiz-adv-x="796" 
d="M738 358q0 -111 -36.5 -193.5t-111.5 -128.5t-192 -46q-95 0 -164 32l-44 -66l-79 53l44 66q-49 49 -73 121t-24 163q0 110 36.5 192.5t112 128t192.5 45.5q50 0 92 -8.5t76 -25.5l41 61l78 -51l-43 -64q48 -48 71.5 -119t23.5 -160zM217 358q0 -45 6.5 -83t20.5 -67
l247 369q-39 22 -92 22q-96 0 -139 -64t-43 -177zM579 358q0 89 -25 145l-244 -367q18 -9 40 -14t48 -5q97 0 139 64.5t42 176.5z" />
    <glyph glyph-name="Ugrave#0" unicode="&#xd9;" horiz-adv-x="756" 
d="M671 714v-462q0 -74 -32.5 -133.5t-98 -94t-165.5 -34.5q-142 0 -216 72.5t-74 191.5v460h151v-437q0 -88 36 -124t107 -36q74 0 107.5 39t33.5 122v436h151zM354 934q15 -22 35.5 -49.5t42 -53.5t37.5 -44v-13h-99q-19 13 -44.5 32.5t-52 41.5t-49.5 42t-37 34v10h167z
" />
    <glyph glyph-name="Uacute#0" unicode="&#xda;" horiz-adv-x="756" 
d="M671 714v-462q0 -74 -32.5 -133.5t-98 -94t-165.5 -34.5q-142 0 -216 72.5t-74 191.5v460h151v-437q0 -88 36 -124t107 -36q74 0 107.5 39t33.5 122v436h151zM570 934v-10q-14 -14 -37 -34t-49.5 -42t-52 -41.5t-44.5 -32.5h-99v13q16 18 37.5 44t42 53.5t35.5 49.5h167z
" />
    <glyph glyph-name="Ucircumflex#0" unicode="&#xdb;" horiz-adv-x="756" 
d="M671 714v-462q0 -74 -32.5 -133.5t-98 -94t-165.5 -34.5q-142 0 -216 72.5t-74 191.5v460h151v-437q0 -88 36 -124t107 -36q74 0 107.5 39t33.5 122v436h151zM466 934q14 -22 36.5 -49.5t46.5 -53.5t42 -44v-13h-99q-26 16 -57 37.5t-57 48.5q-26 -27 -56 -48t-56 -38
h-99v13q18 18 42 44t46.5 53.5t36.5 49.5h174z" />
    <glyph glyph-name="Udieresis#0" unicode="&#xdc;" horiz-adv-x="756" 
d="M671 714v-462q0 -74 -32.5 -133.5t-98 -94t-165.5 -34.5q-142 0 -216 72.5t-74 191.5v460h151v-437q0 -88 36 -124t107 -36q74 0 107.5 39t33.5 122v436h151zM210 854q0 35 20 50.5t48 15.5t48.5 -15.5t20.5 -50.5q0 -33 -20.5 -49t-48.5 -16t-48 16t-20 49zM407 854
q0 35 20 50.5t49 15.5q28 0 48.5 -15.5t20.5 -50.5q0 -33 -20.5 -49t-48.5 -16q-29 0 -49 16t-20 49z" />
    <glyph glyph-name="Yacute#0" unicode="&#xdd;" horiz-adv-x="624" 
d="M312 420l149 294h163l-237 -436v-278h-150v273l-237 441h164zM504 934v-10q-14 -14 -37 -34t-49.5 -42t-52 -41.5t-44.5 -32.5h-99v13q16 18 37.5 44t42 53.5t35.5 49.5h167z" />
    <glyph glyph-name="Thorn#0" unicode="&#xde;" horiz-adv-x="628" 
d="M583 376q0 -61 -25 -114t-83.5 -86t-158.5 -33h-75v-143h-151v714h151v-112h87q132 0 193.5 -61.5t61.5 -164.5zM241 265h49q71 0 105.5 26t34.5 85q0 53 -31 78t-97 25h-61v-214z" />
    <glyph glyph-name="germandbls#0" unicode="&#xdf;" horiz-adv-x="711" 
d="M610 606q0 -37 -14 -64t-35 -47t-42 -35t-35 -27.5t-14 -25.5q0 -19 23 -34.5t79 -51.5q49 -31 76.5 -67t27.5 -95q0 -83 -57.5 -126t-167.5 -43q-93 0 -148 31v118q23 -16 63.5 -29t74.5 -13q39 0 60.5 15t21.5 45q0 18 -7 30.5t-26.5 27.5t-58.5 37q-61 35 -85 64
t-24 69q0 31 13.5 53t34 38t41 31t34 32t13.5 41q0 31 -32 50t-79 19q-52 0 -86 -24t-34 -74v-551h-149v556q0 71 35.5 117.5t96.5 69t137 22.5q75 0 134.5 -18.5t94 -54t34.5 -86.5z" />
    <glyph glyph-name="agrave#0" unicode="&#xe0;" horiz-adv-x="604" 
d="M302 557q110 0 168.5 -47.5t58.5 -145.5v-364h-104l-29 74h-4q-35 -44 -74 -64t-107 -20q-73 0 -121 42.5t-48 130.5q0 87 61 128.5t183 45.5l95 3v24q0 43 -22.5 63t-62.5 20t-78 -11.5t-76 -28.5l-49 101q44 23 97.5 36t111.5 13zM381 253l-58 -2q-72 -2 -100 -26
t-28 -63q0 -34 20 -48.5t52 -14.5q48 0 81 28.5t33 80.5v45zM278 766q15 -22 35.5 -49.5t42 -53.5t37.5 -44v-13h-99q-19 13 -44.5 32.5t-52 41.5t-49.5 42t-37 34v10h167z" />
    <glyph glyph-name="aacute#0" unicode="&#xe1;" horiz-adv-x="604" 
d="M302 557q110 0 168.5 -47.5t58.5 -145.5v-364h-104l-29 74h-4q-35 -44 -74 -64t-107 -20q-73 0 -121 42.5t-48 130.5q0 87 61 128.5t183 45.5l95 3v24q0 43 -22.5 63t-62.5 20t-78 -11.5t-76 -28.5l-49 101q44 23 97.5 36t111.5 13zM381 253l-58 -2q-72 -2 -100 -26
t-28 -63q0 -34 20 -48.5t52 -14.5q48 0 81 28.5t33 80.5v45zM494 766v-10q-14 -14 -37 -34t-49.5 -42t-52 -41.5t-44.5 -32.5h-99v13q16 18 37.5 44t42 53.5t35.5 49.5h167z" />
    <glyph glyph-name="acircumflex#0" unicode="&#xe2;" horiz-adv-x="604" 
d="M302 557q110 0 168.5 -47.5t58.5 -145.5v-364h-104l-29 74h-4q-35 -44 -74 -64t-107 -20q-73 0 -121 42.5t-48 130.5q0 87 61 128.5t183 45.5l95 3v24q0 43 -22.5 63t-62.5 20t-78 -11.5t-76 -28.5l-49 101q44 23 97.5 36t111.5 13zM381 253l-58 -2q-72 -2 -100 -26
t-28 -63q0 -34 20 -48.5t52 -14.5q48 0 81 28.5t33 80.5v45zM390 766q14 -22 36.5 -49.5t46.5 -53.5t42 -44v-13h-99q-26 16 -57 37.5t-57 48.5q-26 -27 -56 -48t-56 -38h-99v13q18 18 42 44t46.5 53.5t36.5 49.5h174z" />
    <glyph glyph-name="atilde#0" unicode="&#xe3;" horiz-adv-x="604" 
d="M302 557q110 0 168.5 -47.5t58.5 -145.5v-364h-104l-29 74h-4q-35 -44 -74 -64t-107 -20q-73 0 -121 42.5t-48 130.5q0 87 61 128.5t183 45.5l95 3v24q0 43 -22.5 63t-62.5 20t-78 -11.5t-76 -28.5l-49 101q44 23 97.5 36t111.5 13zM381 253l-58 -2q-72 -2 -100 -26
t-28 -63q0 -34 20 -48.5t52 -14.5q48 0 81 28.5t33 80.5v45zM99 605q6 78 43.5 114.5t89.5 36.5q27 0 52.5 -13t50 -25.5t47.5 -12.5q15 0 29 13t20 39h73q-6 -77 -44 -114t-89 -37q-26 0 -51.5 12.5t-50 25.5t-48.5 13q-15 0 -29 -13t-20 -39h-73z" />
    <glyph glyph-name="adieresis#0" unicode="&#xe4;" horiz-adv-x="604" 
d="M302 557q110 0 168.5 -47.5t58.5 -145.5v-364h-104l-29 74h-4q-35 -44 -74 -64t-107 -20q-73 0 -121 42.5t-48 130.5q0 87 61 128.5t183 45.5l95 3v24q0 43 -22.5 63t-62.5 20t-78 -11.5t-76 -28.5l-49 101q44 23 97.5 36t111.5 13zM381 253l-58 -2q-72 -2 -100 -26
t-28 -63q0 -34 20 -48.5t52 -14.5q48 0 81 28.5t33 80.5v45zM134 686q0 35 20 50.5t48 15.5t48.5 -15.5t20.5 -50.5q0 -33 -20.5 -49t-48.5 -16t-48 16t-20 49zM331 686q0 35 20 50.5t49 15.5q28 0 48.5 -15.5t20.5 -50.5q0 -33 -20.5 -49t-48.5 -16q-29 0 -49 16t-20 49z
" />
    <glyph glyph-name="aring#0" unicode="&#xe5;" horiz-adv-x="604" 
d="M302 557q110 0 168.5 -47.5t58.5 -145.5v-364h-104l-29 74h-4q-35 -44 -74 -64t-107 -20q-73 0 -121 42.5t-48 130.5q0 87 61 128.5t183 45.5l95 3v24q0 43 -22.5 63t-62.5 20t-78 -11.5t-76 -28.5l-49 101q44 23 97.5 36t111.5 13zM381 253l-58 -2q-72 -2 -100 -26
t-28 -63q0 -34 20 -48.5t52 -14.5q48 0 81 28.5t33 80.5v45zM303 605q-54 0 -87.5 31t-33.5 85t33.5 85t87.5 31q52 0 88 -31t36 -84q0 -55 -35.5 -86t-88.5 -31zM303 674q20 0 33.5 12.5t13.5 34.5t-13.5 34.5t-33.5 12.5t-33.5 -12.5t-13.5 -34.5t12 -34.5t35 -12.5z" />
    <glyph glyph-name="ae#0" unicode="&#xe6;" horiz-adv-x="917" 
d="M641 556q69 0 121.5 -29t82 -84t29.5 -135v-72h-353q2 -63 37.5 -99t98.5 -36q96 0 186 43v-115q-41 -20 -85 -29.5t-109 -9.5q-67 0 -122 25t-90 76q-29 -35 -58.5 -57.5t-67.5 -33t-95 -10.5q-47 0 -86.5 18.5t-63.5 57t-24 97.5q0 87 59 128.5t177 45.5l93 3v41
q0 34 -21.5 50t-59.5 16q-39 0 -75.5 -10.5t-73.5 -27.5l-48 99q43 23 96 36t110 13q110 0 167 -64q32 32 74.5 47.5t100.5 15.5zM638 450q-49 0 -79 -28t-35 -87h210q-1 50 -25 82.5t-71 32.5zM371 253l-55 -2q-68 -2 -94.5 -26t-26.5 -63q0 -34 18.5 -48.5t49.5 -14.5
q46 0 77 28.5t31 80.5v45z" />
    <glyph glyph-name="ccedilla#0" unicode="&#xe7;" horiz-adv-x="514" 
d="M300 -10q-122 0 -188.5 67.5t-66.5 212.5q0 100 34 163t94.5 93t139.5 30q56 0 97.5 -11t72.5 -26l-44 -115q-35 14 -65.5 23t-60.5 9q-116 0 -116 -165q0 -82 30.5 -121t85.5 -39q47 0 83 12.5t70 34.5v-127q-34 -22 -71.5 -31.5t-94.5 -9.5zM407 -122q0 -56 -32.5 -87
t-118.5 -31q-22 0 -39.5 3t-31.5 7v82q14 -4 34.5 -7t35.5 -3q14 0 24.5 6.5t10.5 23.5q0 18 -18 32t-63 21l38 75h94l-13 -30q30 -10 54.5 -32.5t24.5 -59.5z" />
    <glyph glyph-name="egrave#0" unicode="&#xe8;" horiz-adv-x="591" 
d="M303 556q113 0 179 -64.5t66 -183.5v-72h-352q2 -63 37.5 -99t98.5 -36q53 0 96 10.5t89 32.5v-115q-40 -20 -84.5 -29.5t-107.5 -9.5q-82 0 -145 30.5t-99 92.5t-36 156q0 95 32.5 159t90.5 96t135 32zM304 450q-43 0 -71.5 -28t-33.5 -87h209q-1 50 -26 82.5t-78 32.5z
M272 766q15 -22 35.5 -49.5t42 -53.5t37.5 -44v-13h-99q-19 13 -44.5 32.5t-52 41.5t-49.5 42t-37 34v10h167z" />
    <glyph glyph-name="eacute#0" unicode="&#xe9;" horiz-adv-x="591" 
d="M303 556q113 0 179 -64.5t66 -183.5v-72h-352q2 -63 37.5 -99t98.5 -36q53 0 96 10.5t89 32.5v-115q-40 -20 -84.5 -29.5t-107.5 -9.5q-82 0 -145 30.5t-99 92.5t-36 156q0 95 32.5 159t90.5 96t135 32zM304 450q-43 0 -71.5 -28t-33.5 -87h209q-1 50 -26 82.5t-78 32.5z
M488 766v-10q-14 -14 -37 -34t-49.5 -42t-52 -41.5t-44.5 -32.5h-99v13q16 18 37.5 44t42 53.5t35.5 49.5h167z" />
    <glyph glyph-name="ecircumflex#0" unicode="&#xea;" horiz-adv-x="591" 
d="M303 556q113 0 179 -64.5t66 -183.5v-72h-352q2 -63 37.5 -99t98.5 -36q53 0 96 10.5t89 32.5v-115q-40 -20 -84.5 -29.5t-107.5 -9.5q-82 0 -145 30.5t-99 92.5t-36 156q0 95 32.5 159t90.5 96t135 32zM304 450q-43 0 -71.5 -28t-33.5 -87h209q-1 50 -26 82.5t-78 32.5z
M384 766q14 -22 36.5 -49.5t46.5 -53.5t42 -44v-13h-99q-26 16 -57 37.5t-57 48.5q-26 -27 -56 -48t-56 -38h-99v13q18 18 42 44t46.5 53.5t36.5 49.5h174z" />
    <glyph glyph-name="edieresis#0" unicode="&#xeb;" horiz-adv-x="591" 
d="M303 556q113 0 179 -64.5t66 -183.5v-72h-352q2 -63 37.5 -99t98.5 -36q53 0 96 10.5t89 32.5v-115q-40 -20 -84.5 -29.5t-107.5 -9.5q-82 0 -145 30.5t-99 92.5t-36 156q0 95 32.5 159t90.5 96t135 32zM304 450q-43 0 -71.5 -28t-33.5 -87h209q-1 50 -26 82.5t-78 32.5z
M128 686q0 35 20 50.5t48 15.5t48.5 -15.5t20.5 -50.5q0 -33 -20.5 -49t-48.5 -16t-48 16t-20 49zM325 686q0 35 20 50.5t49 15.5q28 0 48.5 -15.5t20.5 -50.5q0 -33 -20.5 -49t-48.5 -16q-29 0 -49 16t-20 49z" />
    <glyph glyph-name="igrave#0" unicode="&#xec;" horiz-adv-x="305" 
d="M227 0h-149v546h149v-546zM129 766q15 -22 35.5 -49.5t42 -53.5t37.5 -44v-13h-99q-19 13 -44.5 32.5t-52 41.5t-49.5 42t-37 34v10h167z" />
    <glyph glyph-name="iacute#0" unicode="&#xed;" horiz-adv-x="305" 
d="M227 0h-149v546h149v-546zM345 766v-10q-14 -14 -37 -34t-49.5 -42t-52 -41.5t-44.5 -32.5h-99v13q16 18 37.5 44t42 53.5t35.5 49.5h167z" />
    <glyph glyph-name="icircumflex#0" unicode="&#xee;" horiz-adv-x="305" 
d="M227 0h-149v546h149v-546zM241 766q14 -22 36.5 -49.5t46.5 -53.5t42 -44v-13h-99q-26 16 -57 37.5t-57 48.5q-26 -27 -56 -48t-56 -38h-99v13q18 18 42 44t46.5 53.5t36.5 49.5h174z" />
    <glyph glyph-name="idieresis#0" unicode="&#xef;" horiz-adv-x="305" 
d="M227 0h-149v546h149v-546zM-15 686q0 35 20 50.5t48 15.5t48.5 -15.5t20.5 -50.5q0 -33 -20.5 -49t-48.5 -16t-48 16t-20 49zM182 686q0 35 20 50.5t49 15.5q28 0 48.5 -15.5t20.5 -50.5q0 -33 -20.5 -49t-48.5 -16q-29 0 -49 16t-20 49z" />
    <glyph glyph-name="eth#0" unicode="&#xf0;" horiz-adv-x="619" 
d="M224 765q35 -16 66.5 -33t59.5 -36l110 68l49 -75l-83 -51q73 -67 110.5 -153t37.5 -205q0 -139 -72 -214.5t-194 -75.5q-76 0 -135.5 29t-93.5 85t-34 135t30 134t83 84t122 29q100 0 134 -48l4 2q-16 40 -39 72.5t-55 62.5l-112 -69l-49 76l86 52q-17 11 -35.5 22.5
t-38.5 22.5zM310 376q-61 0 -87 -34.5t-26 -103.5q0 -61 26.5 -99.5t86.5 -38.5t86 40.5t26 119.5q0 46 -27 81t-85 35z" />
    <glyph glyph-name="ntilde#0" unicode="&#xf1;" horiz-adv-x="657" 
d="M388 556q88 0 141 -47.5t53 -152.5v-356h-149v319q0 59 -21 88.5t-67 29.5q-68 0 -93 -46.5t-25 -133.5v-257h-149v546h114l20 -70h8q26 42 71.5 61t96.5 19zM126 605q6 78 43.5 114.5t89.5 36.5q27 0 52.5 -13t50 -25.5t47.5 -12.5q15 0 29 13t20 39h73q-6 -77 -44 -114
t-89 -37q-26 0 -51.5 12.5t-50 25.5t-48.5 13q-15 0 -29 -13t-20 -39h-73z" />
    <glyph glyph-name="ograve#0" unicode="&#xf2;" horiz-adv-x="619" 
d="M574 274q0 -136 -71.5 -210t-194.5 -74q-76 0 -135.5 33t-93.5 96.5t-34 154.5q0 136 71 209t195 73q77 0 136 -33t93 -95.5t34 -153.5zM197 274q0 -81 26.5 -122.5t86.5 -41.5q59 0 85.5 41.5t26.5 122.5t-26.5 121.5t-86.5 40.5q-59 0 -85.5 -40.5t-26.5 -121.5z
M286 766q15 -22 35.5 -49.5t42 -53.5t37.5 -44v-13h-99q-19 13 -44.5 32.5t-52 41.5t-49.5 42t-37 34v10h167z" />
    <glyph glyph-name="oacute#0" unicode="&#xf3;" horiz-adv-x="619" 
d="M574 274q0 -136 -71.5 -210t-194.5 -74q-76 0 -135.5 33t-93.5 96.5t-34 154.5q0 136 71 209t195 73q77 0 136 -33t93 -95.5t34 -153.5zM197 274q0 -81 26.5 -122.5t86.5 -41.5q59 0 85.5 41.5t26.5 122.5t-26.5 121.5t-86.5 40.5q-59 0 -85.5 -40.5t-26.5 -121.5z
M502 766v-10q-14 -14 -37 -34t-49.5 -42t-52 -41.5t-44.5 -32.5h-99v13q16 18 37.5 44t42 53.5t35.5 49.5h167z" />
    <glyph glyph-name="ocircumflex#0" unicode="&#xf4;" horiz-adv-x="619" 
d="M574 274q0 -136 -71.5 -210t-194.5 -74q-76 0 -135.5 33t-93.5 96.5t-34 154.5q0 136 71 209t195 73q77 0 136 -33t93 -95.5t34 -153.5zM197 274q0 -81 26.5 -122.5t86.5 -41.5q59 0 85.5 41.5t26.5 122.5t-26.5 121.5t-86.5 40.5q-59 0 -85.5 -40.5t-26.5 -121.5z
M398 766q14 -22 36.5 -49.5t46.5 -53.5t42 -44v-13h-99q-26 16 -57 37.5t-57 48.5q-26 -27 -56 -48t-56 -38h-99v13q18 18 42 44t46.5 53.5t36.5 49.5h174z" />
    <glyph glyph-name="otilde#0" unicode="&#xf5;" horiz-adv-x="619" 
d="M574 274q0 -136 -71.5 -210t-194.5 -74q-76 0 -135.5 33t-93.5 96.5t-34 154.5q0 136 71 209t195 73q77 0 136 -33t93 -95.5t34 -153.5zM197 274q0 -81 26.5 -122.5t86.5 -41.5q59 0 85.5 41.5t26.5 122.5t-26.5 121.5t-86.5 40.5q-59 0 -85.5 -40.5t-26.5 -121.5z
M107 605q6 78 43.5 114.5t89.5 36.5q27 0 52.5 -13t50 -25.5t47.5 -12.5q15 0 29 13t20 39h73q-6 -77 -44 -114t-89 -37q-26 0 -51.5 12.5t-50 25.5t-48.5 13q-15 0 -29 -13t-20 -39h-73z" />
    <glyph glyph-name="odieresis#0" unicode="&#xf6;" horiz-adv-x="619" 
d="M574 274q0 -136 -71.5 -210t-194.5 -74q-76 0 -135.5 33t-93.5 96.5t-34 154.5q0 136 71 209t195 73q77 0 136 -33t93 -95.5t34 -153.5zM197 274q0 -81 26.5 -122.5t86.5 -41.5q59 0 85.5 41.5t26.5 122.5t-26.5 121.5t-86.5 40.5q-59 0 -85.5 -40.5t-26.5 -121.5z
M142 686q0 35 20 50.5t48 15.5t48.5 -15.5t20.5 -50.5q0 -33 -20.5 -49t-48.5 -16t-48 16t-20 49zM339 686q0 35 20 50.5t49 15.5q28 0 48.5 -15.5t20.5 -50.5q0 -33 -20.5 -49t-48.5 -16q-29 0 -49 16t-20 49z" />
    <glyph glyph-name="divide#0" unicode="&#xf7;" horiz-adv-x="572" 
d="M285 449q-28 0 -48 17.5t-20 56.5q0 41 20 57.5t48 16.5q27 0 47.5 -16.5t20.5 -57.5q0 -39 -20.5 -56.5t-47.5 -17.5zM43 299v107h485v-107h-485zM285 108q-28 0 -48 17.5t-20 56.5q0 41 20 57.5t48 16.5q27 0 47.5 -16.5t20.5 -57.5q0 -39 -20.5 -56.5t-47.5 -17.5z
" />
    <glyph glyph-name="oslash#0" unicode="&#xf8;" horiz-adv-x="619" 
d="M574 274q0 -136 -71.5 -210t-194.5 -74q-31 0 -59.5 6t-54.5 16l-33 -49l-75 51l33 49q-35 37 -54.5 89.5t-19.5 121.5q0 136 71 209t195 73q65 0 121 -25l27 40l74 -53l-28 -41q33 -36 51 -87t18 -116zM197 274q0 -48 9 -81l155 232q-22 11 -52 11q-59 0 -85.5 -40.5
t-26.5 -121.5zM422 274q0 39 -6 69l-151 -226q18 -7 45 -7q59 0 85.5 41.5t26.5 122.5z" />
    <glyph glyph-name="ugrave#0" unicode="&#xf9;" horiz-adv-x="657" 
d="M579 546v-546h-114l-20 70h-8q-26 -42 -71.5 -61t-96.5 -19q-88 0 -141 47.5t-53 152.5v356h149v-319q0 -58 21 -88t67 -30q68 0 93 46.5t25 133.5v257h149zM305 766q15 -22 35.5 -49.5t42 -53.5t37.5 -44v-13h-99q-19 13 -44.5 32.5t-52 41.5t-49.5 42t-37 34v10h167z
" />
    <glyph glyph-name="uacute#0" unicode="&#xfa;" horiz-adv-x="657" 
d="M579 546v-546h-114l-20 70h-8q-26 -42 -71.5 -61t-96.5 -19q-88 0 -141 47.5t-53 152.5v356h149v-319q0 -58 21 -88t67 -30q68 0 93 46.5t25 133.5v257h149zM521 766v-10q-14 -14 -37 -34t-49.5 -42t-52 -41.5t-44.5 -32.5h-99v13q16 18 37.5 44t42 53.5t35.5 49.5h167z
" />
    <glyph glyph-name="ucircumflex#0" unicode="&#xfb;" horiz-adv-x="657" 
d="M579 546v-546h-114l-20 70h-8q-26 -42 -71.5 -61t-96.5 -19q-88 0 -141 47.5t-53 152.5v356h149v-319q0 -58 21 -88t67 -30q68 0 93 46.5t25 133.5v257h149zM417 766q14 -22 36.5 -49.5t46.5 -53.5t42 -44v-13h-99q-26 16 -57 37.5t-57 48.5q-26 -27 -56 -48t-56 -38h-99
v13q18 18 42 44t46.5 53.5t36.5 49.5h174z" />
    <glyph glyph-name="udieresis#0" unicode="&#xfc;" horiz-adv-x="657" 
d="M579 546v-546h-114l-20 70h-8q-26 -42 -71.5 -61t-96.5 -19q-88 0 -141 47.5t-53 152.5v356h149v-319q0 -58 21 -88t67 -30q68 0 93 46.5t25 133.5v257h149zM161 686q0 35 20 50.5t48 15.5t48.5 -15.5t20.5 -50.5q0 -33 -20.5 -49t-48.5 -16t-48 16t-20 49zM358 686
q0 35 20 50.5t49 15.5q28 0 48.5 -15.5t20.5 -50.5q0 -33 -20.5 -49t-48.5 -16q-29 0 -49 16t-20 49z" />
    <glyph glyph-name="yacute#0" unicode="&#xfd;" horiz-adv-x="569" 
d="M0 546h163l103 -307q8 -22 12 -45.5t6 -49.5h3q3 26 8.5 49.5t12.5 45.5l101 307h160l-231 -616q-31 -85 -90.5 -127.5t-137.5 -42.5q-25 0 -43.5 2.5t-32.5 5.5v118q11 -2 26.5 -4t32.5 -2q47 0 74.5 28.5t40.5 68.5l9 27zM477 766v-10q-14 -14 -37 -34t-49.5 -42
t-52 -41.5t-44.5 -32.5h-99v13q16 18 37.5 44t42 53.5t35.5 49.5h167z" />
    <glyph glyph-name="thorn#0" unicode="&#xfe;" horiz-adv-x="633" 
d="M588 274q0 -139 -57 -211.5t-149 -72.5q-59 0 -96 19.5t-59 47.5h-7q3 -15 5 -37.5t2 -38.5v-221h-149v1000h149v-191q0 -24 -2.5 -51.5t-4.5 -42.5h7q21 34 59 57.5t96 23.5q92 0 149 -71.5t57 -210.5zM436 276q0 161 -102 161q-58 0 -81.5 -36t-25.5 -110v-16
q0 -79 23.5 -121.5t85.5 -42.5q51 0 75.5 42.5t24.5 122.5z" />
    <glyph glyph-name="ydieresis#0" unicode="&#xff;" horiz-adv-x="569" 
d="M0 546h163l103 -307q8 -22 12 -45.5t6 -49.5h3q3 26 8.5 49.5t12.5 45.5l101 307h160l-231 -616q-31 -85 -90.5 -127.5t-137.5 -42.5q-25 0 -43.5 2.5t-32.5 5.5v118q11 -2 26.5 -4t32.5 -2q47 0 74.5 28.5t40.5 68.5l9 27zM117 686q0 35 20 50.5t48 15.5t48.5 -15.5
t20.5 -50.5q0 -33 -20.5 -49t-48.5 -16t-48 16t-20 49zM314 686q0 35 20 50.5t49 15.5q28 0 48.5 -15.5t20.5 -50.5q0 -33 -20.5 -49t-48.5 -16q-29 0 -49 16t-20 49z" />
    <glyph glyph-name="Amacron#0" unicode="&#x100;" horiz-adv-x="690" 
d="M527 0l-52 170h-260l-52 -170h-163l252 717h185l253 -717h-163zM439 297l-52 166q-5 17 -13 43t-16 53t-13 47q-5 -20 -13.5 -49.5t-16 -56t-11.5 -37.5l-51 -166h186zM511 877v-103h-331v103h331z" />
    <glyph glyph-name="amacron#0" unicode="&#x101;" horiz-adv-x="604" 
d="M302 557q110 0 168.5 -47.5t58.5 -145.5v-364h-104l-29 74h-4q-35 -44 -74 -64t-107 -20q-73 0 -121 42.5t-48 130.5q0 87 61 128.5t183 45.5l95 3v24q0 43 -22.5 63t-62.5 20t-78 -11.5t-76 -28.5l-49 101q44 23 97.5 36t111.5 13zM381 253l-58 -2q-72 -2 -100 -26
t-28 -63q0 -34 20 -48.5t52 -14.5q48 0 81 28.5t33 80.5v45zM468 709v-103h-331v103h331z" />
    <glyph glyph-name="Abreve#0" unicode="&#x102;" horiz-adv-x="690" 
d="M527 0l-52 170h-260l-52 -170h-163l252 717h185l253 -717h-163zM439 297l-52 166q-5 17 -13 43t-16 53t-13 47q-5 -20 -13.5 -49.5t-16 -56t-11.5 -37.5l-51 -166h186zM540 939q-5 -73 -58 -119t-136 -46q-86 0 -136 45t-54 120h83q2 -28 17 -41t39 -16.5t52 -3.5
q24 0 47.5 4.5t40.5 17.5t20 39h85z" />
    <glyph glyph-name="abreve#0" unicode="&#x103;" horiz-adv-x="604" 
d="M302 557q110 0 168.5 -47.5t58.5 -145.5v-364h-104l-29 74h-4q-35 -44 -74 -64t-107 -20q-73 0 -121 42.5t-48 130.5q0 87 61 128.5t183 45.5l95 3v24q0 43 -22.5 63t-62.5 20t-78 -11.5t-76 -28.5l-49 101q44 23 97.5 36t111.5 13zM381 253l-58 -2q-72 -2 -100 -26
t-28 -63q0 -34 20 -48.5t52 -14.5q48 0 81 28.5t33 80.5v45zM497 771q-5 -73 -58 -119t-136 -46q-86 0 -136 45t-54 120h83q2 -28 17 -41t39 -16.5t52 -3.5q24 0 47.5 4.5t40.5 17.5t20 39h85z" />
    <glyph glyph-name="Aogonek#0" unicode="&#x104;" horiz-adv-x="690" 
d="M527 0l-52 170h-260l-52 -170h-163l252 717h185l253 -717h-163zM439 297l-52 166q-5 17 -13 43t-16 53t-13 47q-5 -20 -13.5 -49.5t-16 -56t-11.5 -37.5l-51 -166h186zM575 -111q0 -20 11 -30t28 -10q16 0 31 3t25 6v-87q-16 -4 -34 -7.5t-42 -3.5q-56 0 -89 31.5
t-33 80.5q0 44 32 82t78 63l65 -17q-34 -32 -53 -58.5t-19 -52.5z" />
    <glyph glyph-name="aogonek#0" unicode="&#x105;" horiz-adv-x="604" 
d="M302 557q110 0 168.5 -47.5t58.5 -145.5v-364h-104l-29 74h-4q-35 -44 -74 -64t-107 -20q-73 0 -121 42.5t-48 130.5q0 87 61 128.5t183 45.5l95 3v24q0 43 -22.5 63t-62.5 20t-78 -11.5t-76 -28.5l-49 101q44 23 97.5 36t111.5 13zM381 253l-58 -2q-72 -2 -100 -26
t-28 -63q0 -34 20 -48.5t52 -14.5q48 0 81 28.5t33 80.5v45zM445 -111q0 -20 11 -30t28 -10q16 0 31 3t25 6v-87q-16 -4 -34 -7.5t-42 -3.5q-56 0 -89 31.5t-33 80.5q0 44 32 82t78 63l65 -17q-34 -32 -53 -58.5t-19 -52.5z" />
    <glyph glyph-name="Cacute#0" unicode="&#x106;" horiz-adv-x="637" 
d="M393 598q-87 0 -133 -65t-46 -178q0 -114 42.5 -176.5t136.5 -62.5q44 0 87.5 10t94.5 28v-127q-47 -19 -93 -28t-103 -9q-110 0 -181.5 45.5t-105.5 128t-34 192.5q0 108 39 191t113.5 130t182.5 47q53 0 106.5 -13.5t102.5 -36.5l-49 -123q-40 19 -80.5 33t-79.5 14z
M569 934v-10q-14 -14 -37 -34t-49.5 -42t-52 -41.5t-44.5 -32.5h-99v13q16 18 37.5 44t42 53.5t35.5 49.5h167z" />
    <glyph glyph-name="cacute#0" unicode="&#x107;" horiz-adv-x="514" 
d="M300 -10q-122 0 -188.5 67.5t-66.5 212.5q0 100 34 163t94.5 93t139.5 30q56 0 97.5 -11t72.5 -26l-44 -115q-35 14 -65.5 23t-60.5 9q-116 0 -116 -165q0 -82 30.5 -121t85.5 -39q47 0 83 12.5t70 34.5v-127q-34 -22 -71.5 -31.5t-94.5 -9.5zM479 766v-10
q-14 -14 -37 -34t-49.5 -42t-52 -41.5t-44.5 -32.5h-99v13q16 18 37.5 44t42 53.5t35.5 49.5h167z" />
    <glyph glyph-name="Ccircumflex#0" unicode="&#x108;" horiz-adv-x="637" 
d="M393 598q-87 0 -133 -65t-46 -178q0 -114 42.5 -176.5t136.5 -62.5q44 0 87.5 10t94.5 28v-127q-47 -19 -93 -28t-103 -9q-110 0 -181.5 45.5t-105.5 128t-34 192.5q0 108 39 191t113.5 130t182.5 47q53 0 106.5 -13.5t102.5 -36.5l-49 -123q-40 19 -80.5 33t-79.5 14z
M465 934q14 -22 36.5 -49.5t46.5 -53.5t42 -44v-13h-99q-26 16 -57 37.5t-57 48.5q-26 -27 -56 -48t-56 -38h-99v13q18 18 42 44t46.5 53.5t36.5 49.5h174z" />
    <glyph glyph-name="ccircumflex#0" unicode="&#x109;" horiz-adv-x="514" 
d="M300 -10q-122 0 -188.5 67.5t-66.5 212.5q0 100 34 163t94.5 93t139.5 30q56 0 97.5 -11t72.5 -26l-44 -115q-35 14 -65.5 23t-60.5 9q-116 0 -116 -165q0 -82 30.5 -121t85.5 -39q47 0 83 12.5t70 34.5v-127q-34 -22 -71.5 -31.5t-94.5 -9.5zM375 766q14 -22 36.5 -49.5
t46.5 -53.5t42 -44v-13h-99q-26 16 -57 37.5t-57 48.5q-26 -27 -56 -48t-56 -38h-99v13q18 18 42 44t46.5 53.5t36.5 49.5h174z" />
    <glyph glyph-name="Cdot#0" unicode="&#x10a;" horiz-adv-x="637" 
d="M393 598q-87 0 -133 -65t-46 -178q0 -114 42.5 -176.5t136.5 -62.5q44 0 87.5 10t94.5 28v-127q-47 -19 -93 -28t-103 -9q-110 0 -181.5 45.5t-105.5 128t-34 192.5q0 108 39 191t113.5 130t182.5 47q53 0 106.5 -13.5t102.5 -36.5l-49 -123q-40 19 -80.5 33t-79.5 14z
M379 928q33 0 57 -15.5t24 -57.5q0 -41 -24 -57t-57 -16q-34 0 -57.5 16t-23.5 57q0 42 23.5 57.5t57.5 15.5z" />
    <glyph glyph-name="cdot#0" unicode="&#x10b;" horiz-adv-x="514" 
d="M300 -10q-122 0 -188.5 67.5t-66.5 212.5q0 100 34 163t94.5 93t139.5 30q56 0 97.5 -11t72.5 -26l-44 -115q-35 14 -65.5 23t-60.5 9q-116 0 -116 -165q0 -82 30.5 -121t85.5 -39q47 0 83 12.5t70 34.5v-127q-34 -22 -71.5 -31.5t-94.5 -9.5zM289 760q33 0 57 -15.5
t24 -57.5q0 -41 -24 -57t-57 -16q-34 0 -57.5 16t-23.5 57q0 42 23.5 57.5t57.5 15.5z" />
    <glyph glyph-name="Ccaron#0" unicode="&#x10c;" horiz-adv-x="637" 
d="M393 598q-87 0 -133 -65t-46 -178q0 -114 42.5 -176.5t136.5 -62.5q44 0 87.5 10t94.5 28v-127q-47 -19 -93 -28t-103 -9q-110 0 -181.5 45.5t-105.5 128t-34 192.5q0 108 39 191t113.5 130t182.5 47q53 0 106.5 -13.5t102.5 -36.5l-49 -123q-40 19 -80.5 33t-79.5 14z
M292 774q-14 23 -36.5 50t-46.5 53t-42 44v13h99q26 -16 56 -37.5t56 -48.5q26 27 57 48.5t57 37.5h99v-13q-18 -18 -42 -44t-46.5 -53t-36.5 -50h-174z" />
    <glyph glyph-name="ccaron#0" unicode="&#x10d;" horiz-adv-x="514" 
d="M300 -10q-122 0 -188.5 67.5t-66.5 212.5q0 100 34 163t94.5 93t139.5 30q56 0 97.5 -11t72.5 -26l-44 -115q-35 14 -65.5 23t-60.5 9q-116 0 -116 -165q0 -82 30.5 -121t85.5 -39q47 0 83 12.5t70 34.5v-127q-34 -22 -71.5 -31.5t-94.5 -9.5zM202 606q-14 23 -36.5 50
t-46.5 53t-42 44v13h99q26 -16 56 -37.5t56 -48.5q26 27 57 48.5t57 37.5h99v-13q-18 -18 -42 -44t-46.5 -53t-36.5 -50h-174z" />
    <glyph glyph-name="Dcaron#0" unicode="&#x10e;" horiz-adv-x="740" 
d="M682 364q0 -181 -102.5 -272.5t-287.5 -91.5h-202v714h224q112 0 194.5 -40t128 -117.5t45.5 -192.5zM525 360q0 119 -52 174.5t-151 55.5h-81v-465h65q219 0 219 235zM285 774q-14 23 -36.5 50t-46.5 53t-42 44v13h99q26 -16 56 -37.5t56 -48.5q26 27 57 48.5t57 37.5
h99v-13q-18 -18 -42 -44t-46.5 -53t-36.5 -50h-174z" />
    <glyph glyph-name="dcaron#0" unicode="&#x10f;" horiz-adv-x="633" 
d="M251 -10q-91 0 -148.5 71.5t-57.5 210.5q0 140 58 212t152 72q59 0 97 -23t60 -57h5q-3 16 -7 46.5t-4 62.5v175h149v-760h-114l-29 71h-6q-22 -34 -59 -57.5t-96 -23.5zM303 109q62 0 87 36.5t26 109.5v16q0 80 -24.5 122t-90.5 42q-49 0 -77 -42.5t-28 -122.5
t28 -120.5t79 -40.5zM757 760v-10q-15 -33 -35 -71.5t-46 -78.5h-87v13q8 29 17 72t13 75h138z" />
    <glyph glyph-name="Dcroat#0" unicode="&#x110;" horiz-adv-x="740" 
d="M314 714q112 0 194.5 -40t128 -117.5t45.5 -192.5q0 -181 -102.5 -272.5t-287.5 -91.5h-202v291h-67v124h67v299h224zM321 590h-80v-175h116v-124h-116v-166h64q220 0 220 235q0 119 -53 174.5t-151 55.5z" />
    <glyph glyph-name="dcroat#0" unicode="&#x111;" horiz-adv-x="649" 
d="M251 -10q-91 0 -148.5 68t-57.5 199q0 133 58 201t152 68q59 0 97 -23t60 -57h5q-4 21 -7.5 54.5t-3.5 58.5v25h-154v97h154v79h149v-79h76v-97h-76v-584h-114l-29 71h-6q-22 -34 -59 -57.5t-96 -23.5zM303 109q62 0 87 33t26 100v14q0 72 -24.5 110.5t-90.5 38.5
q-49 0 -77 -38.5t-28 -111.5t28 -109.5t79 -36.5z" />
    <glyph glyph-name="Emacron#0" unicode="&#x112;" horiz-adv-x="560" 
d="M501 0h-411v714h411v-124h-260v-157h242v-124h-242v-184h260v-125zM467 877v-103h-331v103h331z" />
    <glyph glyph-name="emacron#0" unicode="&#x113;" horiz-adv-x="591" 
d="M303 556q113 0 179 -64.5t66 -183.5v-72h-352q2 -63 37.5 -99t98.5 -36q53 0 96 10.5t89 32.5v-115q-40 -20 -84.5 -29.5t-107.5 -9.5q-82 0 -145 30.5t-99 92.5t-36 156q0 95 32.5 159t90.5 96t135 32zM304 450q-43 0 -71.5 -28t-33.5 -87h209q-1 50 -26 82.5t-78 32.5z
M462 709v-103h-331v103h331z" />
    <glyph glyph-name="Ebreve#0" unicode="&#x114;" horiz-adv-x="560" 
d="M501 0h-411v714h411v-124h-260v-157h242v-124h-242v-184h260v-125zM496 939q-5 -73 -58 -119t-136 -46q-86 0 -136 45t-54 120h83q2 -28 17 -41t39 -16.5t52 -3.5q24 0 47.5 4.5t40.5 17.5t20 39h85z" />
    <glyph glyph-name="ebreve#0" unicode="&#x115;" horiz-adv-x="591" 
d="M303 556q113 0 179 -64.5t66 -183.5v-72h-352q2 -63 37.5 -99t98.5 -36q53 0 96 10.5t89 32.5v-115q-40 -20 -84.5 -29.5t-107.5 -9.5q-82 0 -145 30.5t-99 92.5t-36 156q0 95 32.5 159t90.5 96t135 32zM304 450q-43 0 -71.5 -28t-33.5 -87h209q-1 50 -26 82.5t-78 32.5z
M491 771q-5 -73 -58 -119t-136 -46q-86 0 -136 45t-54 120h83q2 -28 17 -41t39 -16.5t52 -3.5q24 0 47.5 4.5t40.5 17.5t20 39h85z" />
    <glyph glyph-name="Edotaccent#0" unicode="&#x116;" horiz-adv-x="560" 
d="M501 0h-411v714h411v-124h-260v-157h242v-124h-242v-184h260v-125zM303 928q33 0 57 -15.5t24 -57.5q0 -41 -24 -57t-57 -16q-34 0 -57.5 16t-23.5 57q0 42 23.5 57.5t57.5 15.5z" />
    <glyph glyph-name="edotaccent#0" unicode="&#x117;" horiz-adv-x="591" 
d="M303 556q113 0 179 -64.5t66 -183.5v-72h-352q2 -63 37.5 -99t98.5 -36q53 0 96 10.5t89 32.5v-115q-40 -20 -84.5 -29.5t-107.5 -9.5q-82 0 -145 30.5t-99 92.5t-36 156q0 95 32.5 159t90.5 96t135 32zM304 450q-43 0 -71.5 -28t-33.5 -87h209q-1 50 -26 82.5t-78 32.5z
M298 760q33 0 57 -15.5t24 -57.5q0 -41 -24 -57t-57 -16q-34 0 -57.5 16t-23.5 57q0 42 23.5 57.5t57.5 15.5z" />
    <glyph glyph-name="Eogonek#0" unicode="&#x118;" horiz-adv-x="560" 
d="M501 0h-411v714h411v-124h-260v-157h242v-124h-242v-184h260v-125zM406 -111q0 -20 11 -30t28 -10q16 0 31 3t25 6v-87q-16 -4 -34 -7.5t-42 -3.5q-56 0 -89 31.5t-33 80.5q0 44 32 82t78 63l65 -17q-34 -32 -53 -58.5t-19 -52.5z" />
    <glyph glyph-name="eogonek#0" unicode="&#x119;" horiz-adv-x="591" 
d="M413 -111q0 -20 11 -30t28 -10q16 0 31 3t25 6v-87q-16 -4 -34 -7.5t-42 -3.5q-56 0 -89 31.5t-33 80.5q0 44 32 82t78 63l97 12q-60 -53 -82 -83.5t-22 -56.5zM303 556q113 0 179 -64.5t66 -183.5v-72h-352q2 -63 37.5 -99t98.5 -36q53 0 96 10.5t89 32.5v-115
q-40 -20 -84.5 -29.5t-107.5 -9.5q-82 0 -145 30.5t-99 92.5t-36 156q0 95 32.5 159t90.5 96t135 32zM304 450q-43 0 -71.5 -28t-33.5 -87h209q-1 50 -26 82.5t-78 32.5z" />
    <glyph glyph-name="Ecaron#0" unicode="&#x11a;" horiz-adv-x="560" 
d="M501 0h-411v714h411v-124h-260v-157h242v-124h-242v-184h260v-125zM216 774q-14 23 -36.5 50t-46.5 53t-42 44v13h99q26 -16 56 -37.5t56 -48.5q26 27 57 48.5t57 37.5h99v-13q-18 -18 -42 -44t-46.5 -53t-36.5 -50h-174z" />
    <glyph glyph-name="ecaron#0" unicode="&#x11b;" horiz-adv-x="591" 
d="M303 556q113 0 179 -64.5t66 -183.5v-72h-352q2 -63 37.5 -99t98.5 -36q53 0 96 10.5t89 32.5v-115q-40 -20 -84.5 -29.5t-107.5 -9.5q-82 0 -145 30.5t-99 92.5t-36 156q0 95 32.5 159t90.5 96t135 32zM304 450q-43 0 -71.5 -28t-33.5 -87h209q-1 50 -26 82.5t-78 32.5z
M211 606q-14 23 -36.5 50t-46.5 53t-42 44v13h99q26 -16 56 -37.5t56 -48.5q26 27 57 48.5t57 37.5h99v-13q-18 -18 -42 -44t-46.5 -53t-36.5 -50h-174z" />
    <glyph glyph-name="Gcircumflex#0" unicode="&#x11c;" horiz-adv-x="724" 
d="M361 401h283v-370q-56 -19 -116.5 -30t-137.5 -11q-160 0 -246 94t-86 274q0 112 43.5 194t126.5 127t203 45q57 0 112 -12t100 -32l-50 -121q-33 17 -75 28t-88 11q-66 0 -114.5 -30t-75 -84.5t-26.5 -128.5q0 -70 19 -124t60 -84.5t107 -30.5q32 0 54.5 3t41.5 7v149
h-135v126zM488 934q14 -22 36.5 -49.5t46.5 -53.5t42 -44v-13h-99q-26 16 -57 37.5t-57 48.5q-26 -27 -56 -48t-56 -38h-99v13q18 18 42 44t46.5 53.5t36.5 49.5h174z" />
    <glyph glyph-name="gcircumflex#0" unicode="&#x11d;" horiz-adv-x="633" 
d="M255 556q101 0 158 -80h4l12 70h126v-547q0 -117 -69 -178t-204 -61q-58 0 -107.5 7t-96.5 25v119q101 -42 213 -42q115 0 115 124v11q0 17 1.5 35t2.5 32h-4q-28 -43 -67 -62t-88 -19q-97 0 -151.5 74.5t-54.5 207.5q0 134 56 209t154 75zM302 435q-105 0 -105 -165
q0 -163 107 -163q57 0 84.5 32.5t27.5 113.5v18q0 88 -27 126t-87 38zM402 766q14 -22 36.5 -49.5t46.5 -53.5t42 -44v-13h-99q-26 16 -57 37.5t-57 48.5q-26 -27 -56 -48t-56 -38h-99v13q18 18 42 44t46.5 53.5t36.5 49.5h174z" />
    <glyph glyph-name="Gbreve#0" unicode="&#x11e;" horiz-adv-x="724" 
d="M361 401h283v-370q-56 -19 -116.5 -30t-137.5 -11q-160 0 -246 94t-86 274q0 112 43.5 194t126.5 127t203 45q57 0 112 -12t100 -32l-50 -121q-33 17 -75 28t-88 11q-66 0 -114.5 -30t-75 -84.5t-26.5 -128.5q0 -70 19 -124t60 -84.5t107 -30.5q32 0 54.5 3t41.5 7v149
h-135v126zM595 939q-5 -73 -58 -119t-136 -46q-86 0 -136 45t-54 120h83q2 -28 17 -41t39 -16.5t52 -3.5q24 0 47.5 4.5t40.5 17.5t20 39h85z" />
    <glyph glyph-name="gbreve#0" unicode="&#x11f;" horiz-adv-x="633" 
d="M255 556q101 0 158 -80h4l12 70h126v-547q0 -117 -69 -178t-204 -61q-58 0 -107.5 7t-96.5 25v119q101 -42 213 -42q115 0 115 124v11q0 17 1.5 35t2.5 32h-4q-28 -43 -67 -62t-88 -19q-97 0 -151.5 74.5t-54.5 207.5q0 134 56 209t154 75zM302 435q-105 0 -105 -165
q0 -163 107 -163q57 0 84.5 32.5t27.5 113.5v18q0 88 -27 126t-87 38zM509 771q-5 -73 -58 -119t-136 -46q-86 0 -136 45t-54 120h83q2 -28 17 -41t39 -16.5t52 -3.5q24 0 47.5 4.5t40.5 17.5t20 39h85z" />
    <glyph glyph-name="Gdot#0" unicode="&#x120;" horiz-adv-x="724" 
d="M361 401h283v-370q-56 -19 -116.5 -30t-137.5 -11q-160 0 -246 94t-86 274q0 112 43.5 194t126.5 127t203 45q57 0 112 -12t100 -32l-50 -121q-33 17 -75 28t-88 11q-66 0 -114.5 -30t-75 -84.5t-26.5 -128.5q0 -70 19 -124t60 -84.5t107 -30.5q32 0 54.5 3t41.5 7v149
h-135v126zM402 928q33 0 57 -15.5t24 -57.5q0 -41 -24 -57t-57 -16q-34 0 -57.5 16t-23.5 57q0 42 23.5 57.5t57.5 15.5z" />
    <glyph glyph-name="gdot#0" unicode="&#x121;" horiz-adv-x="633" 
d="M255 556q101 0 158 -80h4l12 70h126v-547q0 -117 -69 -178t-204 -61q-58 0 -107.5 7t-96.5 25v119q101 -42 213 -42q115 0 115 124v11q0 17 1.5 35t2.5 32h-4q-28 -43 -67 -62t-88 -19q-97 0 -151.5 74.5t-54.5 207.5q0 134 56 209t154 75zM302 435q-105 0 -105 -165
q0 -163 107 -163q57 0 84.5 32.5t27.5 113.5v18q0 88 -27 126t-87 38zM316 760q33 0 57 -15.5t24 -57.5q0 -41 -24 -57t-57 -16q-34 0 -57.5 16t-23.5 57q0 42 23.5 57.5t57.5 15.5z" />
    <glyph glyph-name="uni0122#0" unicode="&#x122;" horiz-adv-x="724" 
d="M361 401h283v-370q-56 -19 -116.5 -30t-137.5 -11q-160 0 -246 94t-86 274q0 112 43.5 194t126.5 127t203 45q57 0 112 -12t100 -32l-50 -121q-33 17 -75 28t-88 11q-66 0 -114.5 -30t-75 -84.5t-26.5 -128.5q0 -70 19 -124t60 -84.5t107 -30.5q32 0 54.5 3t41.5 7v149
h-135v126zM474 -61v-10q-15 -33 -35 -71.5t-46 -78.5h-87v13q8 29 17 72t13 75h138z" />
    <glyph glyph-name="uni0123#0" unicode="&#x123;" horiz-adv-x="633" 
d="M255 556q101 0 158 -80h4l12 70h126v-547q0 -117 -69 -178t-204 -61q-58 0 -107.5 7t-96.5 25v119q101 -42 213 -42q115 0 115 124v11q0 17 1.5 35t2.5 32h-4q-28 -43 -67 -62t-88 -19q-97 0 -151.5 74.5t-54.5 207.5q0 134 56 209t154 75zM302 435q-105 0 -105 -165
q0 -163 107 -163q57 0 84.5 32.5t27.5 113.5v18q0 88 -27 126t-87 38zM392 766v-13q-8 -29 -17 -72t-13 -75h-138v10q15 33 35.5 71.5t45.5 78.5h87z" />
    <glyph glyph-name="Hcircumflex#0" unicode="&#x124;" horiz-adv-x="765" 
d="M675 0h-151v308h-283v-308h-151v714h151v-280h283v280h151v-714zM471 934q14 -22 36.5 -49.5t46.5 -53.5t42 -44v-13h-99q-26 16 -57 37.5t-57 48.5q-26 -27 -56 -48t-56 -38h-99v13q18 18 42 44t46.5 53.5t36.5 49.5h174z" />
    <glyph glyph-name="hcircumflex#0" unicode="&#x125;" horiz-adv-x="657" 
d="M227 760v-155q0 -40 -2.5 -77t-4.5 -52h8q26 42 67 61t91 19q89 0 142.5 -47.5t53.5 -152.5v-356h-149v319q0 118 -88 118q-67 0 -92.5 -46.5t-25.5 -133.5v-257h-149v760h149zM243 980q14 -22 36.5 -49.5t46.5 -53.5t42 -44v-13h-99q-26 16 -57 37.5t-57 48.5
q-26 -27 -56 -48t-56 -38h-99v13q18 18 42 44t46.5 53.5t36.5 49.5h174z" />
    <glyph glyph-name="Hbar#0" unicode="&#x126;" horiz-adv-x="765" 
d="M90 0v522h-90v97h90v95h151v-95h283v95h151v-95h90v-97h-90v-522h-151v308h-283v-308h-151zM241 434h283v88h-283v-88z" />
    <glyph glyph-name="hbar#0" unicode="&#x127;" horiz-adv-x="657" 
d="M227 760v-79h154v-97h-154v-9q0 -40 -2.5 -77t-4.5 -52h9q26 42 66.5 61t91.5 19q89 0 142 -47.5t53 -152.5v-326h-149v289q0 118 -88 118q-67 0 -92.5 -46.5t-25.5 -133.5v-227h-149v584h-76v97h76v79h149z" />
    <glyph glyph-name="Itilde.salt#0" horiz-adv-x="389" 
d="M357 0h-325v86l87 40v462l-87 40v86h325v-86l-87 -40v-462l87 -40v-86zM-8 773q6 78 43.5 114.5t89.5 36.5q27 0 52.5 -13t50 -25.5t47.5 -12.5q15 0 29 13t20 39h73q-6 -77 -44 -114t-89 -37q-26 0 -51.5 12.5t-50 25.5t-48.5 13q-15 0 -29 -13t-20 -39h-73z" />
    <glyph glyph-name="itilde#0" unicode="&#x129;" horiz-adv-x="305" 
d="M227 0h-149v546h149v-546zM-50 605q6 78 43.5 114.5t89.5 36.5q27 0 52.5 -13t50 -25.5t47.5 -12.5q15 0 29 13t20 39h73q-6 -77 -44 -114t-89 -37q-26 0 -51.5 12.5t-50 25.5t-48.5 13q-15 0 -29 -13t-20 -39h-73z" />
    <glyph glyph-name="Imacron.salt#0" horiz-adv-x="389" 
d="M357 0h-325v86l87 40v462l-87 40v86h325v-86l-87 -40v-462l87 -40v-86zM361 877v-103h-331v103h331z" />
    <glyph glyph-name="imacron#0" unicode="&#x12b;" horiz-adv-x="305" 
d="M227 0h-149v546h149v-546zM319 709v-103h-331v103h331z" />
    <glyph glyph-name="Ibreve.salt#0" horiz-adv-x="389" 
d="M357 0h-325v86l87 40v462l-87 40v86h325v-86l-87 -40v-462l87 -40v-86zM390 939q-5 -73 -58 -119t-136 -46q-86 0 -136 45t-54 120h83q2 -28 17 -41t39 -16.5t52 -3.5q24 0 47.5 4.5t40.5 17.5t20 39h85z" />
    <glyph glyph-name="ibreve#0" unicode="&#x12d;" horiz-adv-x="305" 
d="M227 0h-149v546h149v-546zM348 771q-5 -73 -58 -119t-136 -46q-86 0 -136 45t-54 120h83q2 -28 17 -41t39 -16.5t52 -3.5q24 0 47.5 4.5t40.5 17.5t20 39h85z" />
    <glyph glyph-name="Iogonek.salt#0" horiz-adv-x="389" 
d="M357 0h-325v86l87 40v462l-87 40v86h325v-86l-87 -40v-462l87 -40v-86zM256 -111q0 -20 11 -30t28 -10q16 0 31 3t25 6v-87q-16 -4 -34 -7.5t-42 -3.5q-56 0 -89 31.5t-33 80.5q0 44 32 82t78 63l65 -17q-34 -32 -53 -58.5t-19 -52.5z" />
    <glyph glyph-name="iogonek#0" unicode="&#x12f;" horiz-adv-x="305" 
d="M153 760q33 0 57 -15.5t24 -57.5q0 -41 -24 -57t-57 -16q-34 0 -57.5 16t-23.5 57q0 42 23.5 57.5t57.5 15.5zM227 546v-546h-149v546h149zM148 -111q0 -20 11 -30t28 -10q16 0 31 3t25 6v-87q-16 -4 -34 -7.5t-42 -3.5q-56 0 -89 31.5t-33 80.5q0 44 32 82t78 63l65 -17
q-34 -32 -53 -58.5t-19 -52.5z" />
    <glyph glyph-name="Idotaccent.salt#0" horiz-adv-x="389" 
d="M357 0h-325v86l87 40v462l-87 40v86h325v-86l-87 -40v-462l87 -40v-86zM197 928q33 0 57 -15.5t24 -57.5q0 -41 -24 -57t-57 -16q-34 0 -57.5 16t-23.5 57q0 42 23.5 57.5t57.5 15.5z" />
    <glyph glyph-name="IJ.salt#0" horiz-adv-x="720" 
d="M357 0h-325v86l87 40v462l-87 40v86h325v-86l-87 -40v-462l87 -40v-86zM404 -210q-29 0 -51 3.5t-38 7.5v126q16 -4 33.5 -7t37.5 -3q26 0 47.5 10t33.5 38t12 80v669h151v-668q0 -92 -28.5 -148.5t-79.5 -82t-118 -25.5z" />
    <glyph glyph-name="ij#0" unicode="&#x133;" horiz-adv-x="610" 
d="M153 760q33 0 57 -15.5t24 -57.5q0 -41 -24 -57t-57 -16q-34 0 -57.5 16t-23.5 57q0 42 23.5 57.5t57.5 15.5zM227 546v-546h-149v546h149zM377 687q0 42 23.5 57.5t57.5 15.5q33 0 57 -15.5t24 -57.5q0 -41 -24 -57t-57 -16q-34 0 -57.5 16t-23.5 57zM339 -240
q-25 0 -52.5 3.5t-45.5 8.5v117q18 -4 34 -6.5t36 -2.5q30 0 51 17t21 66v583h149v-605q0 -50 -19 -91t-61.5 -65.5t-112.5 -24.5z" />
    <glyph glyph-name="Jcircumflex.salt#0" horiz-adv-x="331" 
d="M15 -210q-29 0 -51 3.5t-38 7.5v126q16 -4 33.5 -7t37.5 -3q26 0 47.5 10t33.5 38t12 80v669h151v-668q0 -92 -28.5 -148.5t-79.5 -82t-118 -25.5zM254 934q14 -22 36.5 -49.5t46.5 -53.5t42 -44v-13h-99q-26 16 -57 37.5t-57 48.5q-26 -27 -56 -48t-56 -38h-99v13
q18 18 42 44t46.5 53.5t36.5 49.5h174z" />
    <glyph glyph-name="jcircumflex#0" unicode="&#x135;" horiz-adv-x="305" 
d="M34 -240q-25 0 -52.5 3.5t-45.5 8.5v117q18 -4 34 -6.5t36 -2.5q30 0 51 17t21 66v583h149v-605q0 -50 -19 -91t-61.5 -65.5t-112.5 -24.5zM241 766q14 -22 36.5 -49.5t46.5 -53.5t42 -44v-13h-99q-26 16 -57 37.5t-57 48.5q-26 -27 -56 -48t-56 -38h-99v13q18 18 42 44
t46.5 53.5t36.5 49.5h174z" />
    <glyph glyph-name="uni0136#0" unicode="&#x136;" horiz-adv-x="664" 
d="M664 0h-172l-187 301l-64 -46v-255h-151v714h151v-327l30 42l30 42l193 243h168l-249 -316zM432 -61v-10q-15 -33 -35 -71.5t-46 -78.5h-87v13q8 29 17 72t13 75h138z" />
    <glyph glyph-name="uni0137#0" unicode="&#x137;" horiz-adv-x="620" 
d="M227 760v-340q0 -31 -2.5 -61.5t-5.5 -61.5h2q15 21 31 42.5t34 40.5l153 166h168l-217 -237l230 -309h-172l-157 221l-64 -51v-170h-149v760h149zM394 -61v-10q-15 -33 -35 -71.5t-46 -78.5h-87v13q8 29 17 72t13 75h138z" />
    <glyph glyph-name="kgreenlandic#0" unicode="&#x138;" horiz-adv-x="620" 
d="M607 546l-215 -250l228 -296h-170l-153 208l-70 -44v-164h-149v546h149v-143q-1 -30 -1 -60t-2 -59h2q17 21 34 41.5t35 41.5l153 179h159z" />
    <glyph glyph-name="Lacute#0" unicode="&#x139;" horiz-adv-x="565" 
d="M90 0v714h151v-589h290v-125h-441zM356 934v-10q-14 -14 -37 -34t-49.5 -42t-52 -41.5t-44.5 -32.5h-99v13q16 18 37.5 44t42 53.5t35.5 49.5h167z" />
    <glyph glyph-name="lacute#0" unicode="&#x13a;" horiz-adv-x="305" 
d="M227 0h-149v760h149v-760zM345 980v-10q-14 -14 -37 -34t-49.5 -42t-52 -41.5t-44.5 -32.5h-99v13q16 18 37.5 44t42 53.5t35.5 49.5h167z" />
    <glyph glyph-name="uni013B#0" unicode="&#x13b;" horiz-adv-x="565" 
d="M90 0v714h151v-589h290v-125h-441zM392 -61v-10q-15 -33 -35 -71.5t-46 -78.5h-87v13q8 29 17 72t13 75h138z" />
    <glyph glyph-name="uni013C#0" unicode="&#x13c;" horiz-adv-x="305" 
d="M227 0h-149v760h149v-760zM237 -61v-10q-15 -33 -35 -71.5t-46 -78.5h-87v13q8 29 17 72t13 75h138z" />
    <glyph glyph-name="Lcaron#0" unicode="&#x13d;" horiz-adv-x="565" 
d="M90 0v714h151v-589h290v-125h-441zM559 714v-10q-15 -33 -35 -71.5t-46 -78.5h-87v13q8 29 17 72t13 75h138z" />
    <glyph glyph-name="lcaron#0" unicode="&#x13e;" horiz-adv-x="305" 
d="M227 0h-149v760h149v-760zM422 760v-10q-15 -33 -35 -71.5t-46 -78.5h-87v13q8 29 17 72t13 75h138z" />
    <glyph glyph-name="Ldot#0" unicode="&#x13f;" horiz-adv-x="565" 
d="M90 0v714h151v-589h290v-125h-441zM439 465q33 0 57 -15.5t24 -57.5q0 -41 -24 -57t-57 -16q-34 0 -57.5 16t-23.5 57q0 42 23.5 57.5t57.5 15.5z" />
    <glyph glyph-name="ldot#0" unicode="&#x140;" horiz-adv-x="362" 
d="M227 0h-149v760h149v-760zM333 451q33 0 57 -15.5t24 -57.5q0 -41 -24 -57t-57 -16q-34 0 -57.5 16t-23.5 57q0 42 23.5 57.5t57.5 15.5z" />
    <glyph glyph-name="Lslash#0" unicode="&#x141;" horiz-adv-x="565" 
d="M90 0v240l-34 -20l-55 96l89 54v344h151v-252l70 43l57 -96l-127 -77v-207h290v-125h-441z" />
    <glyph glyph-name="lslash#0" unicode="&#x142;" horiz-adv-x="305" 
d="M78 0v233l-35 -21l-55 96l90 55v397h149v-306l34 21l57 -96l-91 -55v-324h-149z" />
    <glyph glyph-name="Nacute#0" unicode="&#x143;" horiz-adv-x="813" 
d="M723 0h-192l-311 540h-4q2 -51 4.5 -102t4.5 -102v-336h-135v714h191l310 -535h3q-1 50 -3 99l-4 98v338h136v-714zM599 934v-10q-14 -14 -37 -34t-49.5 -42t-52 -41.5t-44.5 -32.5h-99v13q16 18 37.5 44t42 53.5t35.5 49.5h167z" />
    <glyph glyph-name="nacute#0" unicode="&#x144;" horiz-adv-x="657" 
d="M388 556q88 0 141 -47.5t53 -152.5v-356h-149v319q0 59 -21 88.5t-67 29.5q-68 0 -93 -46.5t-25 -133.5v-257h-149v546h114l20 -70h8q26 42 71.5 61t96.5 19zM521 766v-10q-14 -14 -37 -34t-49.5 -42t-52 -41.5t-44.5 -32.5h-99v13q16 18 37.5 44t42 53.5t35.5 49.5h167z
" />
    <glyph glyph-name="uni0145#0" unicode="&#x145;" horiz-adv-x="813" 
d="M723 0h-192l-311 540h-4q2 -51 4.5 -102t4.5 -102v-336h-135v714h191l310 -535h3q-1 50 -3 99l-4 98v338h136v-714zM491 -61v-10q-15 -33 -35 -71.5t-46 -78.5h-87v13q8 29 17 72t13 75h138z" />
    <glyph glyph-name="uni0146#0" unicode="&#x146;" horiz-adv-x="657" 
d="M388 556q88 0 141 -47.5t53 -152.5v-356h-149v319q0 59 -21 88.5t-67 29.5q-68 0 -93 -46.5t-25 -133.5v-257h-149v546h114l20 -70h8q26 42 71.5 61t96.5 19zM413 -61v-10q-15 -33 -35 -71.5t-46 -78.5h-87v13q8 29 17 72t13 75h138z" />
    <glyph glyph-name="Ncaron#0" unicode="&#x147;" horiz-adv-x="813" 
d="M723 0h-192l-311 540h-4q2 -51 4.5 -102t4.5 -102v-336h-135v714h191l310 -535h3q-1 50 -3 99l-4 98v338h136v-714zM322 774q-14 23 -36.5 50t-46.5 53t-42 44v13h99q26 -16 56 -37.5t56 -48.5q26 27 57 48.5t57 37.5h99v-13q-18 -18 -42 -44t-46.5 -53t-36.5 -50h-174z
" />
    <glyph glyph-name="ncaron#0" unicode="&#x148;" horiz-adv-x="657" 
d="M388 556q88 0 141 -47.5t53 -152.5v-356h-149v319q0 59 -21 88.5t-67 29.5q-68 0 -93 -46.5t-25 -133.5v-257h-149v546h114l20 -70h8q26 42 71.5 61t96.5 19zM244 606q-14 23 -36.5 50t-46.5 53t-42 44v13h99q26 -16 56 -37.5t56 -48.5q26 27 57 48.5t57 37.5h99v-13
q-18 -18 -42 -44t-46.5 -53t-36.5 -50h-174z" />
    <glyph glyph-name="napostrophe#0" unicode="&#x149;" horiz-adv-x="770" 
d="M501 556q88 0 141 -47.5t53 -152.5v-356h-149v319q0 59 -21 88.5t-67 29.5q-68 0 -93 -46.5t-25 -133.5v-257h-149v546h114l20 -70h8q26 42 71.5 61t96.5 19zM188 714l7 -11q-13 -53 -37 -116t-49 -118h-107q14 59 28 126t21 119h137z" />
    <glyph glyph-name="Eng#0" unicode="&#x14a;" horiz-adv-x="813" 
d="M496 -210q-31 0 -55 3.5t-41 7.5v118q18 -4 38 -7t43 -3q56 0 82 22t28 71l-371 538h-4q2 -28 4 -65.5t3.5 -75t1.5 -63.5v-336h-135v714h191l310 -440h3q-1 28 -3 64.5t-3 72t-1 60.5v243h136v-714q0 -109 -63 -159.5t-164 -50.5z" />
    <glyph glyph-name="eng#0" unicode="&#x14b;" horiz-adv-x="657" 
d="M405 -240q-23 0 -48 3.5t-42 8.5v117q15 -4 28.5 -6.5t29.5 -2.5q25 0 42.5 17t17.5 66v367q0 107 -88 107q-68 0 -93 -46.5t-25 -133.5v-257h-149v546h114l20 -70h9q26 42 71.5 61t95.5 19q88 0 141 -47.5t53 -152.5v-415q0 -50 -17.5 -91t-56.5 -65.5t-103 -24.5z" />
    <glyph glyph-name="Omacron#0" unicode="&#x14c;" horiz-adv-x="796" 
d="M738 358q0 -111 -36.5 -193.5t-111.5 -128.5t-192 -46q-116 0 -191.5 46t-112 129t-36.5 194q0 110 36.5 192.5t112 128t192.5 45.5q116 0 191 -45.5t111.5 -128t36.5 -193.5zM217 358q0 -112 43 -176.5t138 -64.5q97 0 139 64.5t42 176.5q0 113 -42 177t-138 64
t-139 -64t-43 -177zM564 877v-103h-331v103h331z" />
    <glyph glyph-name="omacron#0" unicode="&#x14d;" horiz-adv-x="619" 
d="M574 274q0 -136 -71.5 -210t-194.5 -74q-76 0 -135.5 33t-93.5 96.5t-34 154.5q0 136 71 209t195 73q77 0 136 -33t93 -95.5t34 -153.5zM197 274q0 -81 26.5 -122.5t86.5 -41.5q59 0 85.5 41.5t26.5 122.5t-26.5 121.5t-86.5 40.5q-59 0 -85.5 -40.5t-26.5 -121.5z
M476 709v-103h-331v103h331z" />
    <glyph glyph-name="Obreve#0" unicode="&#x14e;" horiz-adv-x="796" 
d="M738 358q0 -111 -36.5 -193.5t-111.5 -128.5t-192 -46q-116 0 -191.5 46t-112 129t-36.5 194q0 110 36.5 192.5t112 128t192.5 45.5q116 0 191 -45.5t111.5 -128t36.5 -193.5zM217 358q0 -112 43 -176.5t138 -64.5q97 0 139 64.5t42 176.5q0 113 -42 177t-138 64
t-139 -64t-43 -177zM593 939q-5 -73 -58 -119t-136 -46q-86 0 -136 45t-54 120h83q2 -28 17 -41t39 -16.5t52 -3.5q24 0 47.5 4.5t40.5 17.5t20 39h85z" />
    <glyph glyph-name="obreve#0" unicode="&#x14f;" horiz-adv-x="619" 
d="M574 274q0 -136 -71.5 -210t-194.5 -74q-76 0 -135.5 33t-93.5 96.5t-34 154.5q0 136 71 209t195 73q77 0 136 -33t93 -95.5t34 -153.5zM197 274q0 -81 26.5 -122.5t86.5 -41.5q59 0 85.5 41.5t26.5 122.5t-26.5 121.5t-86.5 40.5q-59 0 -85.5 -40.5t-26.5 -121.5z
M505 771q-5 -73 -58 -119t-136 -46q-86 0 -136 45t-54 120h83q2 -28 17 -41t39 -16.5t52 -3.5q24 0 47.5 4.5t40.5 17.5t20 39h85z" />
    <glyph glyph-name="Ohungarumlaut#0" unicode="&#x150;" horiz-adv-x="796" 
d="M738 358q0 -111 -36.5 -193.5t-111.5 -128.5t-192 -46q-116 0 -191.5 46t-112 129t-36.5 194q0 110 36.5 192.5t112 128t192.5 45.5q116 0 191 -45.5t111.5 -128t36.5 -193.5zM217 358q0 -112 43 -176.5t138 -64.5q97 0 139 64.5t42 176.5q0 113 -42 177t-138 64
t-139 -64t-43 -177zM691 934v-10q-8 -13 -27 -33t-44 -42t-49.5 -41.5t-42.5 -33.5h-79v13q14 19 32 45t35 53t28 49h147zM497 934v-10q-8 -13 -27 -33t-44 -42t-49.5 -41.5t-42.5 -33.5h-79v13q14 19 31.5 45t34.5 53t29 49h147z" />
    <glyph glyph-name="ohungarumlaut#0" unicode="&#x151;" horiz-adv-x="619" 
d="M574 274q0 -136 -71.5 -210t-194.5 -74q-76 0 -135.5 33t-93.5 96.5t-34 154.5q0 136 71 209t195 73q77 0 136 -33t93 -95.5t34 -153.5zM197 274q0 -81 26.5 -122.5t86.5 -41.5q59 0 85.5 41.5t26.5 122.5t-26.5 121.5t-86.5 40.5q-59 0 -85.5 -40.5t-26.5 -121.5z
M603 766v-10q-8 -13 -27 -33t-44 -42t-49.5 -41.5t-42.5 -33.5h-79v13q14 19 32 45t35 53t28 49h147zM409 766v-10q-8 -13 -27 -33t-44 -42t-49.5 -41.5t-42.5 -33.5h-79v13q14 19 31.5 45t34.5 53t29 49h147z" />
    <glyph glyph-name="OE#0" unicode="&#x152;" horiz-adv-x="973" 
d="M379 725q26 0 57.5 -3t53.5 -8h424v-124h-275v-157h257v-124h-257v-184h275v-125h-426q-22 -4 -53 -7t-57 -3q-109 0 -180 46t-105.5 129t-34.5 194q0 110 34.5 192.5t105.5 128t181 45.5zM379 599q-85 0 -125 -64t-40 -177q0 -112 39.5 -176.5t124.5 -64.5q29 0 60 5
t50 14v443q-18 10 -49 15t-60 5z" />
    <glyph glyph-name="oe#0" unicode="&#x153;" horiz-adv-x="978" 
d="M683 556q116 0 184 -64.5t68 -183.5v-72h-364q3 -64 40 -99.5t101 -35.5q55 0 100 10.5t92 32.5v-115q-42 -20 -87.5 -29.5t-110.5 -9.5q-62 0 -114.5 18.5t-90.5 57.5q-34 -38 -83 -57t-108 -19q-78 0 -137.5 33t-93.5 96.5t-34 154.5q0 136 69.5 209t194.5 73
q55 0 104 -19t83 -57q70 76 187 76zM686 450q-46 0 -76 -28t-35 -87h220q-1 50 -27.5 82.5t-81.5 32.5zM309 436q-59 0 -85.5 -40.5t-26.5 -121.5t26.5 -122.5t86.5 -41.5q59 0 85.5 41.5t26.5 122.5t-26.5 121.5t-86.5 40.5z" />
    <glyph glyph-name="Racute#0" unicode="&#x154;" horiz-adv-x="660" 
d="M298 714q146 0 215.5 -53t69.5 -161q0 -49 -18.5 -85.5t-49 -62t-65.5 -41.5l210 -311h-168l-170 274h-81v-274h-151v714h208zM287 590h-46v-193h49q75 0 107.5 25t32.5 74q0 51 -34.5 72.5t-108.5 21.5zM530 934v-10q-14 -14 -37 -34t-49.5 -42t-52 -41.5t-44.5 -32.5
h-99v13q16 18 37.5 44t42 53.5t35.5 49.5h167z" />
    <glyph glyph-name="racute#0" unicode="&#x155;" horiz-adv-x="454" 
d="M383 556q11 0 26 -1t24 -3l-11 -140q-7 2 -20.5 3.5t-23.5 1.5q-38 0 -73 -13.5t-56.5 -43.5t-21.5 -82v-278h-149v546h113l22 -92h7q24 42 66 72t97 30zM446 766v-10q-14 -14 -37 -34t-49.5 -42t-52 -41.5t-44.5 -32.5h-99v13q16 18 37.5 44t42 53.5t35.5 49.5h167z" />
    <glyph glyph-name="uni0156#0" unicode="&#x156;" horiz-adv-x="660" 
d="M298 714q146 0 215.5 -53t69.5 -161q0 -49 -18.5 -85.5t-49 -62t-65.5 -41.5l210 -311h-168l-170 274h-81v-274h-151v714h208zM287 590h-46v-193h49q75 0 107.5 25t32.5 74q0 51 -34.5 72.5t-108.5 21.5zM442 -61v-10q-15 -33 -35 -71.5t-46 -78.5h-87v13q8 29 17 72
t13 75h138z" />
    <glyph glyph-name="uni0157#0" unicode="&#x157;" horiz-adv-x="454" 
d="M383 556q11 0 26 -1t24 -3l-11 -140q-7 2 -20.5 3.5t-23.5 1.5q-38 0 -73 -13.5t-56.5 -43.5t-21.5 -82v-278h-149v546h113l22 -92h7q24 42 66 72t97 30zM240 -61v-10q-15 -33 -35 -71.5t-46 -78.5h-87v13q8 29 17 72t13 75h138z" />
    <glyph glyph-name="Rcaron#0" unicode="&#x158;" horiz-adv-x="660" 
d="M298 714q146 0 215.5 -53t69.5 -161q0 -49 -18.5 -85.5t-49 -62t-65.5 -41.5l210 -311h-168l-170 274h-81v-274h-151v714h208zM287 590h-46v-193h49q75 0 107.5 25t32.5 74q0 51 -34.5 72.5t-108.5 21.5zM253 774q-14 23 -36.5 50t-46.5 53t-42 44v13h99q26 -16 56 -37.5
t56 -48.5q26 27 57 48.5t57 37.5h99v-13q-18 -18 -42 -44t-46.5 -53t-36.5 -50h-174z" />
    <glyph glyph-name="rcaron#0" unicode="&#x159;" horiz-adv-x="454" 
d="M383 556q11 0 26 -1t24 -3l-11 -140q-7 2 -20.5 3.5t-23.5 1.5q-38 0 -73 -13.5t-56.5 -43.5t-21.5 -82v-278h-149v546h113l22 -92h7q24 42 66 72t97 30zM169 606q-14 23 -36.5 50t-46.5 53t-42 44v13h99q26 -16 56 -37.5t56 -48.5q26 27 57 48.5t57 37.5h99v-13
q-18 -18 -42 -44t-46.5 -53t-36.5 -50h-174z" />
    <glyph glyph-name="Sacute#0" unicode="&#x15a;" horiz-adv-x="551" 
d="M511 198q0 -95 -68.5 -151.5t-194.5 -56.5q-113 0 -202 43v141q51 -22 105.5 -40.5t108.5 -18.5q56 0 79.5 21.5t23.5 54.5q0 27 -18.5 46t-49.5 35.5t-71 35.5q-25 12 -54 28.5t-55.5 41t-43.5 59.5t-17 84q0 96 65 149.5t177 53.5q56 0 106.5 -13t105.5 -37l-49 -118
q-49 20 -88 31t-80 11q-43 0 -66 -20t-23 -52q0 -38 34 -60t101 -54q55 -26 93.5 -54t59.5 -66t21 -94zM476 934v-10q-14 -14 -37 -34t-49.5 -42t-52 -41.5t-44.5 -32.5h-99v13q16 18 37.5 44t42 53.5t35.5 49.5h167z" />
    <glyph glyph-name="sacute#0" unicode="&#x15b;" horiz-adv-x="497" 
d="M459 162q0 -83 -58.5 -127.5t-174.5 -44.5q-57 0 -98 7.5t-82 24.5v123q44 -20 95 -33t90 -13q44 0 62.5 13t18.5 34q0 14 -7.5 25t-32.5 25t-78 36q-51 21 -84 43t-49 52.5t-16 76.5q0 76 59 114t157 38q51 0 97 -10t95 -33l-45 -107q-40 17 -76 28.5t-73 11.5
q-66 0 -66 -36q0 -13 8.5 -23.5t33 -22.5t72.5 -32q47 -19 81 -39.5t52.5 -51.5t18.5 -79zM441 766v-10q-14 -14 -37 -34t-49.5 -42t-52 -41.5t-44.5 -32.5h-99v13q16 18 37.5 44t42 53.5t35.5 49.5h167z" />
    <glyph glyph-name="Scircumflex#0" unicode="&#x15c;" horiz-adv-x="551" 
d="M511 198q0 -95 -68.5 -151.5t-194.5 -56.5q-113 0 -202 43v141q51 -22 105.5 -40.5t108.5 -18.5q56 0 79.5 21.5t23.5 54.5q0 27 -18.5 46t-49.5 35.5t-71 35.5q-25 12 -54 28.5t-55.5 41t-43.5 59.5t-17 84q0 96 65 149.5t177 53.5q56 0 106.5 -13t105.5 -37l-49 -118
q-49 20 -88 31t-80 11q-43 0 -66 -20t-23 -52q0 -38 34 -60t101 -54q55 -26 93.5 -54t59.5 -66t21 -94zM372 934q14 -22 36.5 -49.5t46.5 -53.5t42 -44v-13h-99q-26 16 -57 37.5t-57 48.5q-26 -27 -56 -48t-56 -38h-99v13q18 18 42 44t46.5 53.5t36.5 49.5h174z" />
    <glyph glyph-name="scircumflex#0" unicode="&#x15d;" horiz-adv-x="497" 
d="M459 162q0 -83 -58.5 -127.5t-174.5 -44.5q-57 0 -98 7.5t-82 24.5v123q44 -20 95 -33t90 -13q44 0 62.5 13t18.5 34q0 14 -7.5 25t-32.5 25t-78 36q-51 21 -84 43t-49 52.5t-16 76.5q0 76 59 114t157 38q51 0 97 -10t95 -33l-45 -107q-40 17 -76 28.5t-73 11.5
q-66 0 -66 -36q0 -13 8.5 -23.5t33 -22.5t72.5 -32q47 -19 81 -39.5t52.5 -51.5t18.5 -79zM337 766q14 -22 36.5 -49.5t46.5 -53.5t42 -44v-13h-99q-26 16 -57 37.5t-57 48.5q-26 -27 -56 -48t-56 -38h-99v13q18 18 42 44t46.5 53.5t36.5 49.5h174z" />
    <glyph glyph-name="Scedilla#0" unicode="&#x15e;" horiz-adv-x="551" 
d="M511 198q0 -95 -68.5 -151.5t-194.5 -56.5q-113 0 -202 43v141q51 -22 105.5 -40.5t108.5 -18.5q56 0 79.5 21.5t23.5 54.5q0 27 -18.5 46t-49.5 35.5t-71 35.5q-25 12 -54 28.5t-55.5 41t-43.5 59.5t-17 84q0 96 65 149.5t177 53.5q56 0 106.5 -13t105.5 -37l-49 -118
q-49 20 -88 31t-80 11q-43 0 -66 -20t-23 -52q0 -38 34 -60t101 -54q55 -26 93.5 -54t59.5 -66t21 -94zM384 -122q0 -56 -32.5 -87t-118.5 -31q-22 0 -39.5 3t-31.5 7v82q14 -4 34.5 -7t35.5 -3q14 0 24.5 6.5t10.5 23.5q0 18 -18 32t-63 21l38 75h94l-13 -30
q30 -10 54.5 -32.5t24.5 -59.5z" />
    <glyph glyph-name="scedilla#0" unicode="&#x15f;" horiz-adv-x="497" 
d="M459 162q0 -83 -58.5 -127.5t-174.5 -44.5q-57 0 -98 7.5t-82 24.5v123q44 -20 95 -33t90 -13q44 0 62.5 13t18.5 34q0 14 -7.5 25t-32.5 25t-78 36q-51 21 -84 43t-49 52.5t-16 76.5q0 76 59 114t157 38q51 0 97 -10t95 -33l-45 -107q-40 17 -76 28.5t-73 11.5
q-66 0 -66 -36q0 -13 8.5 -23.5t33 -22.5t72.5 -32q47 -19 81 -39.5t52.5 -51.5t18.5 -79zM365 -122q0 -56 -32.5 -87t-118.5 -31q-22 0 -39.5 3t-31.5 7v82q14 -4 34.5 -7t35.5 -3q14 0 24.5 6.5t10.5 23.5q0 18 -18 32t-63 21l38 75h94l-13 -30q30 -10 54.5 -32.5
t24.5 -59.5z" />
    <glyph glyph-name="Scaron#0" unicode="&#x160;" horiz-adv-x="551" 
d="M511 198q0 -95 -68.5 -151.5t-194.5 -56.5q-113 0 -202 43v141q51 -22 105.5 -40.5t108.5 -18.5q56 0 79.5 21.5t23.5 54.5q0 27 -18.5 46t-49.5 35.5t-71 35.5q-25 12 -54 28.5t-55.5 41t-43.5 59.5t-17 84q0 96 65 149.5t177 53.5q56 0 106.5 -13t105.5 -37l-49 -118
q-49 20 -88 31t-80 11q-43 0 -66 -20t-23 -52q0 -38 34 -60t101 -54q55 -26 93.5 -54t59.5 -66t21 -94zM199 774q-14 23 -36.5 50t-46.5 53t-42 44v13h99q26 -16 56 -37.5t56 -48.5q26 27 57 48.5t57 37.5h99v-13q-18 -18 -42 -44t-46.5 -53t-36.5 -50h-174z" />
    <glyph glyph-name="scaron#0" unicode="&#x161;" horiz-adv-x="497" 
d="M459 162q0 -83 -58.5 -127.5t-174.5 -44.5q-57 0 -98 7.5t-82 24.5v123q44 -20 95 -33t90 -13q44 0 62.5 13t18.5 34q0 14 -7.5 25t-32.5 25t-78 36q-51 21 -84 43t-49 52.5t-16 76.5q0 76 59 114t157 38q51 0 97 -10t95 -33l-45 -107q-40 17 -76 28.5t-73 11.5
q-66 0 -66 -36q0 -13 8.5 -23.5t33 -22.5t72.5 -32q47 -19 81 -39.5t52.5 -51.5t18.5 -79zM164 606q-14 23 -36.5 50t-46.5 53t-42 44v13h99q26 -16 56 -37.5t56 -48.5q26 27 57 48.5t57 37.5h99v-13q-18 -18 -42 -44t-46.5 -53t-36.5 -50h-174z" />
    <glyph glyph-name="uni021A#0" unicode="&#x21a;" horiz-adv-x="579" 
d="M365 0h-151v588h-194v126h539v-126h-194v-588zM374 -61v-10q-15 -33 -35 -71.5t-46 -78.5h-87v13q8 29 17 72t13 75h138z" />
    <glyph glyph-name="uni021B#0" unicode="&#x21b;" horiz-adv-x="434" 
d="M308 109q25 0 48 5t46 12v-111q-24 -10 -59.5 -17.5t-77.5 -7.5q-49 0 -87.5 16t-61 55.5t-22.5 109.5v263h-71v63l82 50l43 115h95v-116h153v-112h-153v-263q0 -31 18 -46.5t47 -15.5zM325 -61v-10q-15 -33 -35 -71.5t-46 -78.5h-87v13q8 29 17 72t13 75h138z" />
    <glyph glyph-name="Tcaron#0" unicode="&#x164;" horiz-adv-x="579" 
d="M365 0h-151v588h-194v126h539v-126h-194v-588zM205 774q-14 23 -36.5 50t-46.5 53t-42 44v13h99q26 -16 56 -37.5t56 -48.5q26 27 57 48.5t57 37.5h99v-13q-18 -18 -42 -44t-46.5 -53t-36.5 -50h-174z" />
    <glyph glyph-name="tcaron#0" unicode="&#x165;" horiz-adv-x="434" 
d="M308 109q25 0 48 5t46 12v-111q-24 -10 -59.5 -17.5t-77.5 -7.5q-49 0 -87.5 16t-61 55.5t-22.5 109.5v263h-71v63l82 50l43 115h95v-116h153v-112h-153v-263q0 -31 18 -46.5t47 -15.5zM570 760v-10q-15 -33 -35 -71.5t-46 -78.5h-87v13q8 29 17 72t13 75h138z" />
    <glyph glyph-name="Tbar#0" unicode="&#x166;" horiz-adv-x="579" 
d="M214 0v291h-121v124h121v173h-194v126h539v-126h-194v-173h121v-124h-121v-291h-151z" />
    <glyph glyph-name="tbar#0" unicode="&#x167;" horiz-adv-x="434" 
d="M32 243v97h347v-97h-347zM308 109q25 0 48 5t46 12v-111q-24 -10 -59.5 -17.5t-77.5 -7.5q-49 0 -87.5 16t-61 55.5t-22.5 109.5v263h-71v63l82 50l43 115h95v-116h153v-112h-153v-263q0 -31 18 -46.5t47 -15.5z" />
    <glyph glyph-name="Utilde#0" unicode="&#x168;" horiz-adv-x="756" 
d="M671 714v-462q0 -74 -32.5 -133.5t-98 -94t-165.5 -34.5q-142 0 -216 72.5t-74 191.5v460h151v-437q0 -88 36 -124t107 -36q74 0 107.5 39t33.5 122v436h151zM175 773q6 78 43.5 114.5t89.5 36.5q27 0 52.5 -13t50 -25.5t47.5 -12.5q15 0 29 13t20 39h73q-6 -77 -44 -114
t-89 -37q-26 0 -51.5 12.5t-50 25.5t-48.5 13q-15 0 -29 -13t-20 -39h-73z" />
    <glyph glyph-name="utilde#0" unicode="&#x169;" horiz-adv-x="657" 
d="M579 546v-546h-114l-20 70h-8q-26 -42 -71.5 -61t-96.5 -19q-88 0 -141 47.5t-53 152.5v356h149v-319q0 -58 21 -88t67 -30q68 0 93 46.5t25 133.5v257h149zM126 605q6 78 43.5 114.5t89.5 36.5q27 0 52.5 -13t50 -25.5t47.5 -12.5q15 0 29 13t20 39h73q-6 -77 -44 -114
t-89 -37q-26 0 -51.5 12.5t-50 25.5t-48.5 13q-15 0 -29 -13t-20 -39h-73z" />
    <glyph glyph-name="Umacron#0" unicode="&#x16a;" horiz-adv-x="756" 
d="M671 714v-462q0 -74 -32.5 -133.5t-98 -94t-165.5 -34.5q-142 0 -216 72.5t-74 191.5v460h151v-437q0 -88 36 -124t107 -36q74 0 107.5 39t33.5 122v436h151zM544 877v-103h-331v103h331z" />
    <glyph glyph-name="umacron#0" unicode="&#x16b;" horiz-adv-x="657" 
d="M579 546v-546h-114l-20 70h-8q-26 -42 -71.5 -61t-96.5 -19q-88 0 -141 47.5t-53 152.5v356h149v-319q0 -58 21 -88t67 -30q68 0 93 46.5t25 133.5v257h149zM495 709v-103h-331v103h331z" />
    <glyph glyph-name="Ubreve#0" unicode="&#x16c;" horiz-adv-x="756" 
d="M671 714v-462q0 -74 -32.5 -133.5t-98 -94t-165.5 -34.5q-142 0 -216 72.5t-74 191.5v460h151v-437q0 -88 36 -124t107 -36q74 0 107.5 39t33.5 122v436h151zM573 939q-5 -73 -58 -119t-136 -46q-86 0 -136 45t-54 120h83q2 -28 17 -41t39 -16.5t52 -3.5q24 0 47.5 4.5
t40.5 17.5t20 39h85z" />
    <glyph glyph-name="ubreve#0" unicode="&#x16d;" horiz-adv-x="657" 
d="M579 546v-546h-114l-20 70h-8q-26 -42 -71.5 -61t-96.5 -19q-88 0 -141 47.5t-53 152.5v356h149v-319q0 -58 21 -88t67 -30q68 0 93 46.5t25 133.5v257h149zM524 771q-5 -73 -58 -119t-136 -46q-86 0 -136 45t-54 120h83q2 -28 17 -41t39 -16.5t52 -3.5q24 0 47.5 4.5
t40.5 17.5t20 39h85z" />
    <glyph glyph-name="Uring#0" unicode="&#x16e;" horiz-adv-x="756" 
d="M671 714v-462q0 -74 -32.5 -133.5t-98 -94t-165.5 -34.5q-142 0 -216 72.5t-74 191.5v460h151v-437q0 -88 36 -124t107 -36q74 0 107.5 39t33.5 122v436h151zM379 773q-54 0 -87.5 31t-33.5 85t33.5 85t87.5 31q52 0 88 -31t36 -84q0 -55 -35.5 -86t-88.5 -31zM379 842
q20 0 33.5 12.5t13.5 34.5t-13.5 34.5t-33.5 12.5t-33.5 -12.5t-13.5 -34.5t12 -34.5t35 -12.5z" />
    <glyph glyph-name="uring#0" unicode="&#x16f;" horiz-adv-x="657" 
d="M579 546v-546h-114l-20 70h-8q-26 -42 -71.5 -61t-96.5 -19q-88 0 -141 47.5t-53 152.5v356h149v-319q0 -58 21 -88t67 -30q68 0 93 46.5t25 133.5v257h149zM330 605q-54 0 -87.5 31t-33.5 85t33.5 85t87.5 31q52 0 88 -31t36 -84q0 -55 -35.5 -86t-88.5 -31zM330 674
q20 0 33.5 12.5t13.5 34.5t-13.5 34.5t-33.5 12.5t-33.5 -12.5t-13.5 -34.5t12 -34.5t35 -12.5z" />
    <glyph glyph-name="Uhungarumlaut#0" unicode="&#x170;" horiz-adv-x="756" 
d="M671 714v-462q0 -74 -32.5 -133.5t-98 -94t-165.5 -34.5q-142 0 -216 72.5t-74 191.5v460h151v-437q0 -88 36 -124t107 -36q74 0 107.5 39t33.5 122v436h151zM671 934v-10q-8 -13 -27 -33t-44 -42t-49.5 -41.5t-42.5 -33.5h-79v13q14 19 32 45t35 53t28 49h147zM477 934
v-10q-8 -13 -27 -33t-44 -42t-49.5 -41.5t-42.5 -33.5h-79v13q14 19 31.5 45t34.5 53t29 49h147z" />
    <glyph glyph-name="uhungarumlaut#0" unicode="&#x171;" horiz-adv-x="657" 
d="M579 546v-546h-114l-20 70h-8q-26 -42 -71.5 -61t-96.5 -19q-88 0 -141 47.5t-53 152.5v356h149v-319q0 -58 21 -88t67 -30q68 0 93 46.5t25 133.5v257h149zM622 766v-10q-8 -13 -27 -33t-44 -42t-49.5 -41.5t-42.5 -33.5h-79v13q14 19 32 45t35 53t28 49h147zM428 766
v-10q-8 -13 -27 -33t-44 -42t-49.5 -41.5t-42.5 -33.5h-79v13q14 19 31.5 45t34.5 53t29 49h147z" />
    <glyph glyph-name="Uogonek#0" unicode="&#x172;" horiz-adv-x="756" 
d="M485 -100q0 -25 12 -38t29 -13q16 0 30 3t24 6v-87q-16 -4 -34 -7.5t-42 -3.5q-56 0 -89 32t-33 87q0 50 32 94.5t78 69.5l94 14q-53 -49 -77 -87t-24 -70zM671 714v-462q0 -74 -32.5 -133.5t-98 -94t-165.5 -34.5q-142 0 -216 72.5t-74 191.5v460h151v-437
q0 -88 36 -124t107 -36q74 0 107.5 39t33.5 122v436h151z" />
    <glyph glyph-name="uogonek#0" unicode="&#x173;" horiz-adv-x="657" 
d="M579 546v-546h-114l-20 70h-8q-26 -42 -71.5 -61t-96.5 -19q-88 0 -141 47.5t-53 152.5v356h149v-319q0 -58 21 -88t67 -30q68 0 93 46.5t25 133.5v257h149zM475 -111q0 -20 11 -30t28 -10q16 0 31 3t25 6v-87q-16 -4 -34 -7.5t-42 -3.5q-56 0 -89 31.5t-33 80.5
q0 44 32 82t78 63l65 -17q-34 -32 -53 -58.5t-19 -52.5z" />
    <glyph glyph-name="Wcircumflex#0" unicode="&#x174;" horiz-adv-x="967" 
d="M967 714l-182 -714h-172l-97 375q-3 11 -7.5 33t-10 48t-9.5 49.5t-6 36.5q-1 -13 -5.5 -36.5t-9.5 -49t-10 -48t-8 -34.5l-96 -374h-172l-182 714h149l91 -390q6 -23 13 -58t13 -70t9 -59q3 25 9 59.5t12.5 67t11.5 50.5l104 400h143l104 -400q5 -17 11.5 -50t12.5 -68
t9 -59q3 24 9 59t13 70t13 58l91 390h149zM572 934q14 -22 36.5 -49.5t46.5 -53.5t42 -44v-13h-99q-26 16 -57 37.5t-57 48.5q-26 -27 -56 -48t-56 -38h-99v13q18 18 42 44t46.5 53.5t36.5 49.5h174z" />
    <glyph glyph-name="wcircumflex#0" unicode="&#x175;" horiz-adv-x="856" 
d="M527 0l-42 191q-4 17 -11.5 50.5t-16.5 72t-17 71t-11 47.5h-4q-3 -15 -10.5 -47.5t-16.5 -71t-17 -72.5t-12 -52l-44 -189h-160l-155 546h148l63 -242q6 -25 12 -60t10.5 -67.5t7.5 -51.5h4q1 14 4 37.5t7.5 48.5t8 45.5t5.5 27.5l67 262h164l64 -262q3 -14 9 -45
t10.5 -63.5t4.5 -50.5h4q2 17 7 49.5t11.5 68.5t13.5 61l65 242h146l-157 -546h-162zM516 766q14 -22 36.5 -49.5t46.5 -53.5t42 -44v-13h-99q-26 16 -57 37.5t-57 48.5q-26 -27 -56 -48t-56 -38h-99v13q18 18 42 44t46.5 53.5t36.5 49.5h174z" />
    <glyph glyph-name="Ycircumflex#0" unicode="&#x176;" horiz-adv-x="624" 
d="M312 420l149 294h163l-237 -436v-278h-150v273l-237 441h164zM400 934q14 -22 36.5 -49.5t46.5 -53.5t42 -44v-13h-99q-26 16 -57 37.5t-57 48.5q-26 -27 -56 -48t-56 -38h-99v13q18 18 42 44t46.5 53.5t36.5 49.5h174z" />
    <glyph glyph-name="ycircumflex#0" unicode="&#x177;" horiz-adv-x="569" 
d="M0 546h163l103 -307q8 -22 12 -45.5t6 -49.5h3q3 26 8.5 49.5t12.5 45.5l101 307h160l-231 -616q-31 -85 -90.5 -127.5t-137.5 -42.5q-25 0 -43.5 2.5t-32.5 5.5v118q11 -2 26.5 -4t32.5 -2q47 0 74.5 28.5t40.5 68.5l9 27zM373 766q14 -22 36.5 -49.5t46.5 -53.5t42 -44
v-13h-99q-26 16 -57 37.5t-57 48.5q-26 -27 -56 -48t-56 -38h-99v13q18 18 42 44t46.5 53.5t36.5 49.5h174z" />
    <glyph glyph-name="Ydieresis#0" unicode="&#x178;" horiz-adv-x="624" 
d="M312 420l149 294h163l-237 -436v-278h-150v273l-237 441h164zM144 854q0 35 20 50.5t48 15.5t48.5 -15.5t20.5 -50.5q0 -33 -20.5 -49t-48.5 -16t-48 16t-20 49zM341 854q0 35 20 50.5t49 15.5q28 0 48.5 -15.5t20.5 -50.5q0 -33 -20.5 -49t-48.5 -16q-29 0 -49 16
t-20 49z" />
    <glyph glyph-name="Zacute#0" unicode="&#x179;" horiz-adv-x="579" 
d="M555 0h-531v98l342 491h-333v125h513v-98l-342 -491h351v-125zM487 934v-10q-14 -14 -37 -34t-49.5 -42t-52 -41.5t-44.5 -32.5h-99v13q16 18 37.5 44t42 53.5t35.5 49.5h167z" />
    <glyph glyph-name="zacute#0" unicode="&#x17a;" horiz-adv-x="488" 
d="M458 0h-431v88l253 344h-238v114h407v-97l-246 -335h255v-114zM436 766v-10q-14 -14 -37 -34t-49.5 -42t-52 -41.5t-44.5 -32.5h-99v13q16 18 37.5 44t42 53.5t35.5 49.5h167z" />
    <glyph glyph-name="Zdotaccent#0" unicode="&#x17b;" horiz-adv-x="579" 
d="M555 0h-531v98l342 491h-333v125h513v-98l-342 -491h351v-125zM297 928q33 0 57 -15.5t24 -57.5q0 -41 -24 -57t-57 -16q-34 0 -57.5 16t-23.5 57q0 42 23.5 57.5t57.5 15.5z" />
    <glyph glyph-name="zdotaccent#0" unicode="&#x17c;" horiz-adv-x="488" 
d="M458 0h-431v88l253 344h-238v114h407v-97l-246 -335h255v-114zM246 760q33 0 57 -15.5t24 -57.5q0 -41 -24 -57t-57 -16q-34 0 -57.5 16t-23.5 57q0 42 23.5 57.5t57.5 15.5z" />
    <glyph glyph-name="Zcaron#0" unicode="&#x17d;" horiz-adv-x="579" 
d="M555 0h-531v98l342 491h-333v125h513v-98l-342 -491h351v-125zM210 774q-14 23 -36.5 50t-46.5 53t-42 44v13h99q26 -16 56 -37.5t56 -48.5q26 27 57 48.5t57 37.5h99v-13q-18 -18 -42 -44t-46.5 -53t-36.5 -50h-174z" />
    <glyph glyph-name="zcaron#0" unicode="&#x17e;" horiz-adv-x="488" 
d="M458 0h-431v88l253 344h-238v114h407v-97l-246 -335h255v-114zM159 606q-14 23 -36.5 50t-46.5 53t-42 44v13h99q26 -16 56 -37.5t56 -48.5q26 27 57 48.5t57 37.5h99v-13q-18 -18 -42 -44t-46.5 -53t-36.5 -50h-174z" />
    <glyph glyph-name="longs#0" unicode="&#x17f;" horiz-adv-x="383" 
d="M289 647q-34 0 -48 -19t-14 -48v-580h-149v586q0 69 23.5 108t67 55t101.5 16q48 0 81 -7t55 -16l-35 -109q-17 5 -36.5 9.5t-45.5 4.5z" />
    <glyph glyph-name="florin#0" unicode="&#x192;" horiz-adv-x="517" 
d="M187 -15q-92 0 -136.5 47t-44.5 121q0 29 6 50.5t13 37.5l119 -39q-10 -26 -10 -52t13 -40.5t33 -14.5q23 0 37.5 18t14.5 53v268h-82v72l82 40v40q0 69 23.5 108t67 55t102.5 16q44 0 79.5 -7t57.5 -16l-38 -109q-17 5 -37 9.5t-46 4.5q-31 0 -45.5 -19t-14.5 -48v-34
h129v-112h-129v-256q0 -97 -53 -145t-141 -48z" />
    <glyph glyph-name="Aringacute#0" unicode="&#x1fa;" horiz-adv-x="690" 
d="M285 856v8q21 19 45 45.5t40 48.5h167v-6q-10 -12 -38 -30t-60 -36t-55 -30h-99zM0 0l244 642q-21 29 -21 71q0 54 33.5 85t87.5 31q52 0 88 -31t36 -84q0 -22 -6 -40t-17 -32l245 -642h-162l-52 161h-261l-53 -161h-162zM344 667q47 0 47 46q0 22 -13.5 34.5t-33.5 12.5
q-22 0 -34.5 -12.5t-12.5 -34.5q0 -21 12.5 -33.5t34.5 -12.5zM248 288h196l-50 141q-5 16 -15.5 44.5t-20 57t-13.5 44.5q-3 -11 -10 -32.5t-14.5 -45t-14 -42.5t-9.5 -26z" />
    <glyph glyph-name="aringacute#0" unicode="&#x1fb;" horiz-adv-x="604" 
d="M482 958v-6q-10 -12 -38 -30t-60 -36t-55 -30h-99v8q21 19 45 45.5t40 48.5h167zM306 817q52 0 88 -31t36 -84q0 -55 -35.5 -86t-88.5 -31q-54 0 -87.5 31t-33.5 85t33.5 85t87.5 31zM306 748q-20 0 -33.5 -12.5t-13.5 -34.5t12 -34.5t35 -12.5q20 0 33.5 12.5t13.5 34.5
t-13.5 34.5t-33.5 12.5zM302 557q110 0 168.5 -47.5t58.5 -145.5v-364h-104l-29 74h-4q-35 -44 -74 -64t-107 -20q-73 0 -121 42.5t-48 130.5q0 87 61 128.5t183 45.5l95 3v24q0 43 -22.5 63t-62.5 20t-78 -11.5t-76 -28.5l-49 101q44 23 97.5 36t111.5 13zM381 253l-58 -2
q-72 -2 -100 -26t-28 -63q0 -34 20 -48.5t52 -14.5q48 0 81 28.5t33 80.5v45z" />
    <glyph glyph-name="AEacute#0" unicode="&#x1fc;" horiz-adv-x="952" 
d="M893 0h-426v170h-240l-73 -170h-154l320 714h573v-124h-275v-157h257v-124h-257v-184h275v-125zM282 297h185v288h-62zM698 934v-10q-14 -14 -37 -34t-49.5 -42t-52 -41.5t-44.5 -32.5h-99v13q16 18 37.5 44t42 53.5t35.5 49.5h167z" />
    <glyph glyph-name="aeacute#0" unicode="&#x1fd;" horiz-adv-x="917" 
d="M641 556q69 0 121.5 -29t82 -84t29.5 -135v-72h-353q2 -63 37.5 -99t98.5 -36q96 0 186 43v-115q-41 -20 -85 -29.5t-109 -9.5q-67 0 -122 25t-90 76q-29 -35 -58.5 -57.5t-67.5 -33t-95 -10.5q-47 0 -86.5 18.5t-63.5 57t-24 97.5q0 87 59 128.5t177 45.5l93 3v41
q0 34 -21.5 50t-59.5 16q-39 0 -75.5 -10.5t-73.5 -27.5l-48 99q43 23 96 36t110 13q110 0 167 -64q32 32 74.5 47.5t100.5 15.5zM638 450q-49 0 -79 -28t-35 -87h210q-1 50 -25 82.5t-71 32.5zM371 253l-55 -2q-68 -2 -94.5 -26t-26.5 -63q0 -34 18.5 -48.5t49.5 -14.5
q46 0 77 28.5t31 80.5v45zM658 766v-10q-14 -14 -37 -34t-49.5 -42t-52 -41.5t-44.5 -32.5h-99v13q16 18 37.5 44t42 53.5t35.5 49.5h167z" />
    <glyph glyph-name="Oslashacute#0" unicode="&#x1fe;" horiz-adv-x="796" 
d="M738 358q0 -111 -36.5 -193.5t-111.5 -128.5t-192 -46q-95 0 -164 32l-44 -66l-79 53l44 66q-49 49 -73 121t-24 163q0 110 36.5 192.5t112 128t192.5 45.5q50 0 92 -8.5t76 -25.5l41 61l78 -51l-43 -64q48 -48 71.5 -119t23.5 -160zM217 358q0 -45 6.5 -83t20.5 -67
l247 369q-39 22 -92 22q-96 0 -139 -64t-43 -177zM579 358q0 89 -25 145l-244 -367q18 -9 40 -14t48 -5q97 0 139 64.5t42 176.5zM594 934v-10q-14 -14 -37 -34t-49.5 -42t-52 -41.5t-44.5 -32.5h-99v13q16 18 37.5 44t42 53.5t35.5 49.5h167z" />
    <glyph glyph-name="oslashacute#0" unicode="&#x1ff;" horiz-adv-x="619" 
d="M574 274q0 -136 -71.5 -210t-194.5 -74q-31 0 -59.5 6t-54.5 16l-33 -49l-75 51l33 49q-35 37 -54.5 89.5t-19.5 121.5q0 136 71 209t195 73q65 0 121 -25l27 40l74 -53l-28 -41q33 -36 51 -87t18 -116zM197 274q0 -48 9 -81l155 232q-22 11 -52 11q-59 0 -85.5 -40.5
t-26.5 -121.5zM422 274q0 39 -6 69l-151 -226q18 -7 45 -7q59 0 85.5 41.5t26.5 122.5zM503 766v-10q-14 -14 -37 -34t-49.5 -42t-52 -41.5t-44.5 -32.5h-99v13q16 18 37.5 44t42 53.5t35.5 49.5h167z" />
    <glyph glyph-name="uni0218#0" unicode="&#x218;" horiz-adv-x="551" 
d="M511 198q0 -95 -68.5 -151.5t-194.5 -56.5q-113 0 -202 43v141q51 -22 105.5 -40.5t108.5 -18.5q56 0 79.5 21.5t23.5 54.5q0 27 -18.5 46t-49.5 35.5t-71 35.5q-25 12 -54 28.5t-55.5 41t-43.5 59.5t-17 84q0 96 65 149.5t177 53.5q56 0 106.5 -13t105.5 -37l-49 -118
q-49 20 -88 31t-80 11q-43 0 -66 -20t-23 -52q0 -38 34 -60t101 -54q55 -26 93.5 -54t59.5 -66t21 -94zM352 -61v-10q-15 -33 -35 -71.5t-46 -78.5h-87v13q8 29 17 72t13 75h138z" />
    <glyph glyph-name="uni0219#0" unicode="&#x219;" horiz-adv-x="497" 
d="M459 162q0 -83 -58.5 -127.5t-174.5 -44.5q-57 0 -98 7.5t-82 24.5v123q44 -20 95 -33t90 -13q44 0 62.5 13t18.5 34q0 14 -7.5 25t-32.5 25t-78 36q-51 21 -84 43t-49 52.5t-16 76.5q0 76 59 114t157 38q51 0 97 -10t95 -33l-45 -107q-40 17 -76 28.5t-73 11.5
q-66 0 -66 -36q0 -13 8.5 -23.5t33 -22.5t72.5 -32q47 -19 81 -39.5t52.5 -51.5t18.5 -79zM333 -61v-10q-15 -33 -35 -71.5t-46 -78.5h-87v13q8 29 17 72t13 75h138z" />
    <glyph glyph-name="circumflex#0" unicode="&#x2c6;" horiz-adv-x="504" 
d="M339 766q14 -22 36.5 -49.5t46.5 -53.5t42 -44v-13h-99q-26 16 -57 37.5t-57 48.5q-26 -27 -56 -48t-56 -38h-99v13q18 18 42 44t46.5 53.5t36.5 49.5h174z" />
    <glyph glyph-name="caron#0" unicode="&#x2c7;" horiz-adv-x="504" 
d="M165 606q-14 23 -36.5 50t-46.5 53t-42 44v13h99q26 -16 56 -37.5t56 -48.5q26 27 57 48.5t57 37.5h99v-13q-18 -18 -42 -44t-46.5 -53t-36.5 -50h-174z" />
    <glyph glyph-name="macron#0" unicode="&#x2c9;" horiz-adv-x="411" 
d="M371 709v-103h-331v103h331z" />
    <glyph glyph-name="breve#0" unicode="&#x2d8;" horiz-adv-x="464" 
d="M424 771q-5 -73 -58 -119t-136 -46q-86 0 -136 45t-54 120h83q2 -28 17 -41t39 -16.5t52 -3.5q24 0 47.5 4.5t40.5 17.5t20 39h85z" />
    <glyph glyph-name="dotaccent#0" unicode="&#x2d9;" horiz-adv-x="242" 
d="M121 760q33 0 57 -15.5t24 -57.5q0 -41 -24 -57t-57 -16q-34 0 -57.5 16t-23.5 57q0 42 23.5 57.5t57.5 15.5z" />
    <glyph glyph-name="ring#0" unicode="&#x2da;" horiz-adv-x="325" 
d="M161 605q-54 0 -87.5 31t-33.5 85t33.5 85t87.5 31q52 0 88 -31t36 -84q0 -55 -35.5 -86t-88.5 -31zM161 674q20 0 33.5 12.5t13.5 34.5t-13.5 34.5t-33.5 12.5t-33.5 -12.5t-13.5 -34.5t12 -34.5t35 -12.5z" />
    <glyph glyph-name="ogonek#0" unicode="&#x2db;" horiz-adv-x="278" 
d="M143 -111q0 -20 11 -30t28 -10q16 0 31 3t25 6v-87q-16 -4 -34 -7.5t-42 -3.5q-56 0 -89 31.5t-33 80.5q0 44 32 82t78 63l65 -17q-34 -32 -53 -58.5t-19 -52.5z" />
    <glyph glyph-name="tilde#0" unicode="&#x2dc;" horiz-adv-x="485" 
d="M40 605q6 78 43.5 114.5t89.5 36.5q27 0 52.5 -13t50 -25.5t47.5 -12.5q15 0 29 13t20 39h73q-6 -77 -44 -114t-89 -37q-26 0 -51.5 12.5t-50 25.5t-48.5 13q-15 0 -29 -13t-20 -39h-73z" />
    <glyph glyph-name="hungarumlaut#0" unicode="&#x2dd;" horiz-adv-x="516" 
d="M476 766v-10q-8 -13 -27 -33t-44 -42t-49.5 -41.5t-42.5 -33.5h-79v13q14 19 32 45t35 53t28 49h147zM282 766v-10q-8 -13 -27 -33t-44 -42t-49.5 -41.5t-42.5 -33.5h-79v13q14 19 31.5 45t34.5 53t29 49h147z" />
    <glyph glyph-name="tonos#0" unicode="&#x384;" horiz-adv-x="577" 
d="M235 606v15q8 24 15.5 55t14 63t10.5 57h138v-12q-16 -39 -39 -85t-52 -93h-87z" />
    <glyph glyph-name="dieresistonos#0" unicode="&#x385;" horiz-adv-x="577" 
d="M404 838v-10q-15 -33 -39 -72t-52 -78h-67v13q8 29 17 72t13 75h128zM162 752q28 0 46 -15.5t18 -50.5q0 -33 -18 -49t-46 -16t-45.5 16t-17.5 49q0 35 17.5 50.5t45.5 15.5zM430 752q28 0 46 -15.5t18 -50.5q0 -33 -18 -49t-46 -16q-29 0 -46.5 16t-17.5 49
q0 35 17.5 50.5t46.5 15.5z" />
    <glyph glyph-name="Alphatonos#0" unicode="&#x386;" horiz-adv-x="710" 
d="M547 0l-52 170h-260l-52 -170h-163l252 717h185l253 -717h-163zM459 297l-52 166q-5 17 -13 43t-16 53t-13 47q-5 -20 -13.5 -49.5t-16 -56t-11.5 -37.5l-51 -166h186zM10 559v15q8 24 15.5 55t14 63t10.5 57h138v-12q-16 -39 -39 -85t-52 -93h-87z" />
    <glyph glyph-name="anoteleia#0" unicode="&#x387;" horiz-adv-x="285" 
d="M57 472q0 46 25 64.5t61 18.5q35 0 60 -18.5t25 -64.5q0 -44 -25 -63.5t-60 -19.5q-36 0 -61 19.5t-25 63.5z" />
    <glyph glyph-name="Epsilontonos#0" unicode="&#x388;" horiz-adv-x="675" 
d="M616 0h-411v714h411v-124h-260v-157h242v-124h-242v-184h260v-125zM0 559v15q8 24 15.5 55t14 63t10.5 57h138v-12q-16 -39 -39 -85t-52 -93h-87z" />
    <glyph glyph-name="Etatonos#0" unicode="&#x389;" horiz-adv-x="880" 
d="M790 0h-151v308h-283v-308h-151v714h151v-280h283v280h151v-714zM0 559v15q8 24 15.5 55t14 63t10.5 57h138v-12q-16 -39 -39 -85t-52 -93h-87z" />
    <glyph glyph-name="Iotatonos.salt#0" horiz-adv-x="553" 
d="M521 0h-325v86l87 40v462l-87 40v86h325v-86l-87 -40v-462l87 -40v-86zM0 559v15q8 24 15.5 55t14 63t10.5 57h138v-12q-16 -39 -39 -85t-52 -93h-87z" />
    <glyph glyph-name="Omicrontonos#0" unicode="&#x38c;" horiz-adv-x="857" 
d="M799 358q0 -111 -36.5 -193.5t-111.5 -128.5t-192 -46q-116 0 -191.5 46t-112 129t-36.5 194q0 110 36.5 192.5t112 128t192.5 45.5q116 0 191 -45.5t111.5 -128t36.5 -193.5zM278 358q0 -112 43 -176.5t138 -64.5q97 0 139 64.5t42 176.5q0 113 -42 177t-138 64
t-139 -64t-43 -177zM0 559v15q8 24 15.5 55t14 63t10.5 57h138v-12q-16 -39 -39 -85t-52 -93h-87z" />
    <glyph glyph-name="Upsilontonos#0" unicode="&#x38e;" horiz-adv-x="812" 
d="M500 420l149 294h163l-237 -436v-278h-150v273l-237 441h164zM0 559v15q8 24 15.5 55t14 63t10.5 57h138v-12q-16 -39 -39 -85t-52 -93h-87z" />
    <glyph glyph-name="Omegatonos#0" unicode="&#x38f;" horiz-adv-x="865" 
d="M472 599q-85 0 -134.5 -52t-49.5 -153q0 -86 28 -151.5t102 -106.5v-136h-312v127h181q-70 43 -112.5 121t-42.5 178q0 91 41.5 158t118 104t180.5 37t180.5 -37t118 -104.5t41.5 -158.5q0 -100 -42.5 -177t-114.5 -121h183v-127h-314v136q75 39 103.5 106.5t28.5 152.5
q0 100 -49 152t-135 52zM0 559v15q8 24 15.5 55t14 63t10.5 57h138v-12q-16 -39 -39 -85t-52 -93h-87z" />
    <glyph glyph-name="iotadieresistonos#0" unicode="&#x390;" horiz-adv-x="407" 
d="M227 546v-375q0 -31 18 -46.5t47 -15.5q25 0 48 5t46 12v-111q-22 -10 -55.5 -17.5t-72.5 -7.5q-51 0 -91.5 16t-64.5 55.5t-24 109.5v375h149zM276 838v-10q-15 -33 -39 -72t-52 -78h-67v13q8 29 17 72t13 75h128zM34 752q28 0 46 -15.5t18 -50.5q0 -33 -18 -49t-46 -16
t-45.5 16t-17.5 49q0 35 17.5 50.5t45.5 15.5zM302 752q28 0 46 -15.5t18 -50.5q0 -33 -18 -49t-46 -16q-29 0 -46.5 16t-17.5 49q0 35 17.5 50.5t46.5 15.5z" />
    <glyph glyph-name="Alpha#0" unicode="&#x391;" horiz-adv-x="690" 
d="M527 0l-52 170h-260l-52 -170h-163l252 717h185l253 -717h-163zM439 297l-52 166q-5 17 -13 43t-16 53t-13 47q-5 -20 -13.5 -49.5t-16 -56t-11.5 -37.5l-51 -166h186z" />
    <glyph glyph-name="Beta#0" unicode="&#x392;" horiz-adv-x="672" 
d="M90 714h222q143 0 216 -40t73 -141q0 -61 -28.5 -103t-81.5 -51v-5q36 -7 65 -25t46 -52t17 -90q0 -97 -70 -152t-192 -55h-267v714zM241 431h88q66 0 91.5 21t25.5 61q0 41 -30 59t-95 18h-80v-159zM241 311v-186h99q68 0 95 26.5t27 70.5q0 40 -27.5 64.5t-99.5 24.5
h-94z" />
    <glyph glyph-name="Gamma#0" unicode="&#x393;" horiz-adv-x="561" 
d="M541 714v-125h-300v-589h-151v714h451z" />
    <glyph glyph-name="uni0394#0" unicode="&#x394;" horiz-adv-x="658" 
d="M415 717l215 -631v-86h-602v87l216 630h171zM476 126l-123 375q-2 7 -8 27t-10.5 39.5t-5.5 25.5q-1 -6 -5.5 -25.5t-10.5 -39.5t-8 -28l-123 -374h294z" />
    <glyph glyph-name="Epsilon#0" unicode="&#x395;" horiz-adv-x="560" 
d="M501 0h-411v714h411v-124h-260v-157h242v-124h-242v-184h260v-125z" />
    <glyph glyph-name="Zeta#0" unicode="&#x396;" horiz-adv-x="579" 
d="M555 0h-531v98l342 491h-333v125h513v-98l-342 -491h351v-125z" />
    <glyph glyph-name="Eta#0" unicode="&#x397;" horiz-adv-x="765" 
d="M675 0h-151v308h-283v-308h-151v714h151v-280h283v280h151v-714z" />
    <glyph glyph-name="Theta#0" unicode="&#x398;" horiz-adv-x="796" 
d="M525 425v-124h-254v124h254zM738 358q0 -111 -36.5 -193.5t-111.5 -128.5t-192 -46q-116 0 -191.5 46t-112 129t-36.5 194q0 110 36.5 192.5t112 128t192.5 45.5q116 0 191 -45.5t111.5 -128t36.5 -193.5zM217 358q0 -112 43 -176.5t138 -64.5q97 0 139 64.5t42 176.5
q0 113 -42 177t-138 64t-139 -64t-43 -177z" />
    <glyph glyph-name="Iota.salt#0" horiz-adv-x="389" 
d="M357 0h-325v86l87 40v462l-87 40v86h325v-86l-87 -40v-462l87 -40v-86z" />
    <glyph glyph-name="Kappa#0" unicode="&#x39a;" horiz-adv-x="664" 
d="M664 0h-172l-187 301l-64 -46v-255h-151v714h151v-327l30 42l30 42l193 243h168l-249 -316z" />
    <glyph glyph-name="Lambda#0" unicode="&#x39b;" horiz-adv-x="650" 
d="M407 714l243 -714h-153l-133 429q-4 14 -12 44.5t-15.5 62.5t-11.5 51q-4 -21 -11 -52.5t-14 -62t-12 -44.5l-135 -428h-153l242 714h165z" />
    <glyph glyph-name="Mu#0" unicode="&#x39c;" horiz-adv-x="943" 
d="M392 0l-172 560h-4l3 -60t4 -85.5t2 -82.5v-332h-135v714h206l169 -546h3l179 546h206v-714h-141v338q0 34 1.5 78t3 83.5t2.5 59.5h-4l-184 -559h-139z" />
    <glyph glyph-name="Nu#0" unicode="&#x39d;" horiz-adv-x="813" 
d="M723 0h-192l-311 540h-4q2 -51 4.5 -102t4.5 -102v-336h-135v714h191l310 -535h3q-1 50 -3 99l-4 98v338h136v-714z" />
    <glyph glyph-name="Xi#0" unicode="&#x39e;" horiz-adv-x="571" 
d="M60 590v124h451v-124h-451zM100 309v124h371v-124h-371zM40 0v125h491v-125h-491z" />
    <glyph glyph-name="Omicron#0" unicode="&#x39f;" horiz-adv-x="796" 
d="M738 358q0 -111 -36.5 -193.5t-111.5 -128.5t-192 -46q-116 0 -191.5 46t-112 129t-36.5 194q0 110 36.5 192.5t112 128t192.5 45.5q116 0 191 -45.5t111.5 -128t36.5 -193.5zM217 358q0 -112 43 -176.5t138 -64.5q97 0 139 64.5t42 176.5q0 113 -42 177t-138 64
t-139 -64t-43 -177z" />
    <glyph glyph-name="Pi#0" unicode="&#x3a0;" horiz-adv-x="745" 
d="M90 0v714h565v-714h-151v588h-263v-588h-151z" />
    <glyph glyph-name="Rho#0" unicode="&#x3a1;" horiz-adv-x="628" 
d="M318 714q138 0 201.5 -59.5t63.5 -163.5q0 -62 -26 -116.5t-86.5 -87.5t-164.5 -33h-65v-254h-151v714h228zM310 590h-69v-212h50q64 0 101.5 25.5t37.5 82.5q0 104 -120 104z" />
    <glyph glyph-name="Sigma#0" unicode="&#x3a3;" horiz-adv-x="593" 
d="M38 0v119l230 255l-224 224v116h486v-124h-215q-28 0 -55 1t-55 4l222 -220l-233 -256q69 6 138 6h227v-125h-521z" />
    <glyph glyph-name="Tau#0" unicode="&#x3a4;" horiz-adv-x="579" 
d="M365 0h-151v588h-194v126h539v-126h-194v-588z" />
    <glyph glyph-name="Upsilon#0" unicode="&#x3a5;" horiz-adv-x="624" 
d="M312 420l149 294h163l-237 -436v-278h-150v273l-237 441h164z" />
    <glyph glyph-name="Phi#0" unicode="&#x3a6;" horiz-adv-x="860" 
d="M498 724v-88q117 -3 186.5 -40.5t100 -96.5t30.5 -129q0 -45 -15.5 -92t-52 -86.5t-97.5 -64.5t-152 -27v-110h-136v110q-92 2 -153.5 27t-97.5 65t-51 86.5t-15 91.5q0 70 30.5 129t100 96.5t186.5 40.5v88h136zM362 518q-97 -4 -136 -44.5t-39 -102.5q0 -67 42 -108.5
t133 -45.5v301zM498 518v-301q92 4 133.5 45.5t41.5 108.5q0 62 -38.5 102.5t-136.5 44.5z" />
    <glyph glyph-name="Chi#0" unicode="&#x3a7;" horiz-adv-x="667" 
d="M667 0h-173l-166 270l-166 -270h-162l237 368l-222 346h167l154 -257l151 257h163l-224 -354z" />
    <glyph glyph-name="Psi#0" unicode="&#x3a8;" horiz-adv-x="876" 
d="M823 714v-234q0 -88 -29.5 -147.5t-99 -89.5t-188.5 -30v-213h-136v213q-122 0 -191 30.5t-97.5 90t-28.5 144.5v236h142v-234q0 -58 19 -89.5t58 -43.5t98 -12v379h136v-379q54 0 93.5 11.5t60.5 42.5t21 89v236h142z" />
    <glyph glyph-name="uni03A9#0" unicode="&#x3a9;" horiz-adv-x="786" 
d="M393 599q-85 0 -134.5 -52t-49.5 -153q0 -86 28 -151.5t102 -106.5v-136h-312v127h181q-70 43 -112.5 121t-42.5 178q0 91 41.5 158t118 104t180.5 37t180.5 -37t118 -104.5t41.5 -158.5q0 -100 -42.5 -177t-114.5 -121h183v-127h-314v136q75 39 103.5 106.5t28.5 152.5
q0 100 -49 152t-135 52z" />
    <glyph glyph-name="Iotadieresis.salt#0" horiz-adv-x="389" 
d="M357 0h-325v86l87 40v462l-87 40v86h325v-86l-87 -40v-462l87 -40v-86zM27 854q0 35 20 50.5t48 15.5t48.5 -15.5t20.5 -50.5q0 -33 -20.5 -49t-48.5 -16t-48 16t-20 49zM224 854q0 35 20 50.5t49 15.5q28 0 48.5 -15.5t20.5 -50.5q0 -33 -20.5 -49t-48.5 -16
q-29 0 -49 16t-20 49z" />
    <glyph glyph-name="Upsilondieresis#0" unicode="&#x3ab;" horiz-adv-x="624" 
d="M312 420l149 294h163l-237 -436v-278h-150v273l-237 441h164zM144 854q0 35 20 50.5t48 15.5t48.5 -15.5t20.5 -50.5q0 -33 -20.5 -49t-48.5 -16t-48 16t-20 49zM341 854q0 35 20 50.5t49 15.5q28 0 48.5 -15.5t20.5 -50.5q0 -33 -20.5 -49t-48.5 -16q-29 0 -49 16
t-20 49z" />
    <glyph glyph-name="alphatonos#0" unicode="&#x3ac;" horiz-adv-x="647" 
d="M259 -10q-96 0 -155 71.5t-59 209.5q0 140 61 212t164 72q58 0 95 -20.5t62 -61.5h7q5 17 13 37.5t20 35.5h123q-11 -32 -23 -93t-12 -128v-152q0 -34 12.5 -46t28.5 -12q7 0 16 2t13 3v-117q-7 -4 -28.5 -8.5t-38.5 -4.5q-50 0 -81 18t-48 64h-10q-22 -34 -60 -58
t-100 -24zM304 109q62 0 86.5 37.5t25.5 119.5v6q0 80 -24.5 122t-89.5 42q-53 0 -79 -42.5t-26 -123.5q0 -161 107 -161zM265 606v15q8 24 15.5 55t14 63t10.5 57h138v-12q-16 -39 -39 -85t-52 -93h-87z" />
    <glyph glyph-name="epsilontonos#0" unicode="&#x3ad;" horiz-adv-x="555" 
d="M410 336v-103h-82q-77 0 -110 -17t-33 -50q0 -27 30 -44t101 -17q61 0 114 13t87 29v-119q-37 -17 -91 -27.5t-121 -10.5q-141 0 -204 44t-63 117q0 60 36.5 90t96.5 41v5q-52 12 -78 44.5t-26 81.5q0 52 32 83.5t86 45.5t120 14q57 0 114 -11t99 -30l-46 -108
q-36 15 -74.5 27t-88.5 12q-109 0 -109 -51q0 -32 32.5 -45.5t102.5 -13.5h75zM259 606v15q8 24 15.5 55t14 63t10.5 57h138v-12q-16 -39 -39 -85t-52 -93h-87z" />
    <glyph glyph-name="etatonos#0" unicode="&#x3ae;" horiz-adv-x="657" 
d="M388 556q88 0 141 -47.5t53 -152.5v-596h-149v559q0 59 -21 88.5t-67 29.5q-68 0 -93 -46.5t-25 -133.5v-257h-149v546h114l20 -70h8q26 42 71.5 61t96.5 19zM285 606v15q8 24 15.5 55t14 63t10.5 57h138v-12q-16 -39 -39 -85t-52 -93h-87z" />
    <glyph glyph-name="iotatonos#0" unicode="&#x3af;" horiz-adv-x="407" 
d="M227 546v-375q0 -31 18 -46.5t47 -15.5q25 0 48 5t46 12v-111q-22 -10 -55.5 -17.5t-72.5 -7.5q-51 0 -91.5 16t-64.5 55.5t-24 109.5v375h149zM106 606v15q8 24 15.5 55t14 63t10.5 57h138v-12q-16 -39 -39 -85t-52 -93h-87z" />
    <glyph glyph-name="upsilondieresistonos#0" unicode="&#x3b0;" horiz-adv-x="645" 
d="M321 -9q-98 0 -152.5 34.5t-76.5 93t-22 130.5v297h149v-302q0 -71 26 -102.5t81 -31.5q59 0 88 43t29 147q0 65 -9.5 122.5t-25.5 123.5h150q17 -65 25.5 -122.5t8.5 -127.5q0 -157 -68.5 -231t-202.5 -74zM431 838v-10q-15 -33 -39 -72t-52 -78h-67v13q8 29 17 72
t13 75h128zM189 752q28 0 46 -15.5t18 -50.5q0 -33 -18 -49t-46 -16t-45.5 16t-17.5 49q0 35 17.5 50.5t45.5 15.5zM457 752q28 0 46 -15.5t18 -50.5q0 -33 -18 -49t-46 -16q-29 0 -46.5 16t-17.5 49q0 35 17.5 50.5t46.5 15.5z" />
    <glyph glyph-name="alpha#0" unicode="&#x3b1;" horiz-adv-x="647" 
d="M259 -10q-96 0 -155 71.5t-59 209.5q0 140 61 212t164 72q58 0 95 -20.5t62 -61.5h7q5 17 13 37.5t20 35.5h123q-11 -32 -23 -93t-12 -128v-152q0 -34 12.5 -46t28.5 -12q7 0 16 2t13 3v-117q-7 -4 -28.5 -8.5t-38.5 -4.5q-50 0 -81 18t-48 64h-10q-22 -34 -60 -58
t-100 -24zM304 109q62 0 86.5 37.5t25.5 119.5v6q0 80 -24.5 122t-89.5 42q-53 0 -79 -42.5t-26 -123.5q0 -161 107 -161z" />
    <glyph glyph-name="beta#0" unicode="&#x3b2;" horiz-adv-x="660" 
d="M339 765q71 0 127 -21.5t88 -64t32 -106.5q0 -72 -37.5 -114.5t-105.5 -53.5v-3q85 -10 133.5 -55t48.5 -136q0 -105 -65 -163t-174 -58q-97 0 -159 31v-261h-149v775q0 81 34.5 131.5t93.5 74.5t133 24zM335 649q-29 0 -54 -11t-39.5 -38.5t-14.5 -78.5v-378
q25 -16 59 -25t62 -9q62 0 92.5 30.5t30.5 84.5q0 62 -37 86t-90 24h-35v118h26q53 0 77.5 28.5t24.5 74.5q0 47 -28 70.5t-74 23.5z" />
    <glyph glyph-name="gamma#0" unicode="&#x3b3;" horiz-adv-x="568" 
d="M568 546l-202 -537q-16 -40 -26.5 -85t-16 -87.5t-5.5 -76.5h-158q0 28 6.5 70t17.5 88.5t25 87.5l-208 540h155l80 -241q9 -26 19.5 -62.5t18.5 -70t11 -51.5h3q2 15 8.5 44.5t16 65t20.5 67.5l80 248h155z" />
    <glyph glyph-name="delta#0" unicode="&#x3b4;" horiz-adv-x="619" 
d="M343 765q68 0 120 -14.5t105 -39.5l-59 -105q-45 22 -87 35.5t-85 13.5q-40 0 -56 -14.5t-16 -34.5q0 -26 34 -51.5t101 -60.5q90 -46 132 -106t42 -138q0 -134 -73 -197t-194 -63q-76 0 -135 26t-93 76t-34 122q0 69 25.5 115.5t69 74.5t97.5 44q-46 29 -81 70.5
t-35 96.5q0 73 61 111.5t161 38.5zM324 387q-27 -7 -56.5 -26.5t-49.5 -53.5t-20 -87q0 -47 29 -78.5t81 -31.5q54 0 84 33.5t30 96.5q0 52 -27 87.5t-71 59.5z" />
    <glyph glyph-name="epsilon#0" unicode="&#x3b5;" horiz-adv-x="555" 
d="M410 336v-103h-82q-77 0 -110 -17t-33 -50q0 -27 30 -44t101 -17q61 0 114 13t87 29v-119q-37 -17 -91 -27.5t-121 -10.5q-141 0 -204 44t-63 117q0 60 36.5 90t96.5 41v5q-52 12 -78 44.5t-26 81.5q0 52 32 83.5t86 45.5t120 14q57 0 114 -11t99 -30l-46 -108
q-36 15 -74.5 27t-88.5 12q-109 0 -109 -51q0 -32 32.5 -45.5t102.5 -13.5h75z" />
    <glyph glyph-name="zeta#0" unicode="&#x3b6;" horiz-adv-x="498" 
d="M493 -18q0 -43 -21 -87.5t-46 -79.5h-150q29 38 50.5 78.5t21.5 65.5q0 13 -15.5 24t-72.5 21q-100 18 -157.5 71.5t-57.5 152.5q0 85 38.5 160.5t101.5 142.5t138 128q-12 -3 -33 -5t-42 -2.5t-33 -0.5h-142v109h417v-89q-99 -82 -157.5 -148t-87.5 -119.5t-38 -95
t-9 -73.5q0 -48 17 -72t47.5 -35t72.5 -19q89 -18 123.5 -50t34.5 -77z" />
    <glyph glyph-name="eta#0" unicode="&#x3b7;" horiz-adv-x="657" 
d="M388 556q88 0 141 -47.5t53 -152.5v-596h-149v559q0 59 -21 88.5t-67 29.5q-68 0 -93 -46.5t-25 -133.5v-257h-149v546h114l20 -70h8q26 42 71.5 61t96.5 19z" />
    <glyph glyph-name="theta#0" unicode="&#x3b8;" horiz-adv-x="618" 
d="M573 378q0 -121 -26.5 -208t-85 -133.5t-153.5 -46.5q-133 0 -198 103t-65 285q0 122 26 208.5t84 132.5t153 46q134 0 199.5 -101.5t65.5 -285.5zM309 657q-56 0 -81.5 -55.5t-29.5 -165.5h222q-4 110 -29.5 165.5t-81.5 55.5zM308 98q57 0 83.5 56.5t28.5 170.5h-223
q2 -112 27.5 -169.5t83.5 -57.5z" />
    <glyph glyph-name="iota#0" unicode="&#x3b9;" horiz-adv-x="407" 
d="M227 546v-375q0 -31 18 -46.5t47 -15.5q25 0 48 5t46 12v-111q-22 -10 -55.5 -17.5t-72.5 -7.5q-51 0 -91.5 16t-64.5 55.5t-24 109.5v375h149z" />
    <glyph glyph-name="kappa#0" unicode="&#x3ba;" horiz-adv-x="620" 
d="M607 546l-215 -250l228 -296h-170l-153 208l-70 -44v-164h-149v546h149v-143q-1 -30 -1 -60t-2 -59h2q17 21 34 41.5t35 41.5l153 179h159z" />
    <glyph glyph-name="lambda#0" unicode="&#x3bb;" horiz-adv-x="615" 
d="M4 0l231 516l-17 45q-21 52 -45 66t-64 14q-13 0 -26.5 -2t-23.5 -4v123q14 3 38.5 5.5t42.5 2.5q63 0 104 -20.5t67 -59.5t46 -95l137 -377q23 -62 42 -80.5t40 -18.5q14 0 34 5v-115q-12 -6 -39.5 -10.5t-46.5 -4.5q-61 0 -92.5 30.5t-49.5 80.5l-47 133
q-11 32 -21 62.5t-15 52.5h-3q-7 -26 -17 -57t-20 -55l-101 -237h-154z" />
    <glyph glyph-name="uni03BC#0" unicode="&#x3bc;" horiz-adv-x="660" 
d="M582 546v-546h-113l-21 73h-7q-20 -41 -49.5 -62t-72.5 -21q-61 0 -94 44h-3q2 -10 3 -31.5t1.5 -45t0.5 -41.5v-156h-149v786h149v-319q0 -118 89 -118q67 0 92 46.5t25 133.5v257h149z" />
    <glyph glyph-name="nu#0" unicode="&#x3bd;" horiz-adv-x="595" 
d="M3 546h153l106 -303q8 -22 18 -56.5t16 -54.5h4q57 75 81.5 173.5t24.5 240.5h150q0 -108 -18.5 -200.5t-65 -177t-130.5 -168.5h-134z" />
    <glyph glyph-name="xi#0" unicode="&#x3be;" horiz-adv-x="498" 
d="M45 214q0 66 38.5 111.5t99.5 69.5v5q-51 12 -79 43t-28 81q0 53 34 84.5t107 48.5q-24 -1 -51.5 -2.5t-50.5 -2.5t-31 -1h-11v109h393v-103h-37q-54 0 -100.5 -13.5t-75.5 -41t-29 -69.5t28 -64t107 -22h81v-103h-82q-85 0 -122.5 -30t-37.5 -90q0 -43 17 -64.5
t47.5 -32t72.5 -18.5q89 -18 123.5 -50t34.5 -77q0 -43 -21 -87.5t-46 -79.5h-150q29 38 50.5 78.5t21.5 65.5q0 13 -15.5 24t-72.5 21q-100 18 -157.5 69t-57.5 141z" />
    <glyph glyph-name="omicron#0" unicode="&#x3bf;" horiz-adv-x="619" 
d="M574 274q0 -136 -71.5 -210t-194.5 -74q-76 0 -135.5 33t-93.5 96.5t-34 154.5q0 136 71 209t195 73q77 0 136 -33t93 -95.5t34 -153.5zM197 274q0 -81 26.5 -122.5t86.5 -41.5q59 0 85.5 41.5t26.5 122.5t-26.5 121.5t-86.5 40.5q-59 0 -85.5 -40.5t-26.5 -121.5z" />
    <glyph glyph-name="pi#0" unicode="&#x3c0;" horiz-adv-x="739" 
d="M635 107q17 0 33 5t30 12v-107q-17 -10 -47 -18.5t-61 -8.5q-69 0 -109.5 38t-40.5 122v282h-165v-432h-149v432h-114v64l87 50h605v-114h-115v-276q0 -25 13.5 -37t32.5 -12z" />
    <glyph glyph-name="rho#0" unicode="&#x3c1;" horiz-adv-x="618" 
d="M573 273q0 -136 -61 -209.5t-165 -73.5q-38 0 -74 11t-63 27h-9q2 -23 5 -61t3 -70v-137h-150v514q0 134 68 208t192 74q74 0 131 -33.5t90 -96.5t33 -153zM316 436q-54 0 -80.5 -36t-26.5 -119v-129q21 -21 49.5 -31.5t57.5 -10.5q56 0 80 38t24 125t-24 125t-80 38z
" />
    <glyph glyph-name="uni03C2#0" unicode="&#x3c2;" horiz-adv-x="498" 
d="M318 556q91 0 174 -39l-43 -113q-37 14 -70.5 23t-64.5 9q-61 0 -89 -48t-28 -143q0 -45 17 -68.5t48.5 -35t72.5 -20.5q89 -19 123.5 -52t34.5 -80q0 -45 -21 -91.5t-46 -82.5h-150q29 41 50.5 83.5t21.5 68.5q0 14 -15.5 25.5t-72.5 22.5q-100 20 -157.5 75.5
t-57.5 150.5q0 120 34 189t95.5 97.5t143.5 28.5z" />
    <glyph glyph-name="sigma#0" unicode="&#x3c3;" horiz-adv-x="653" 
d="M582 232q0 -69 -31 -123.5t-91 -86.5t-148 -32q-80 0 -140 31.5t-93.5 93t-33.5 151.5q0 101 37 162.5t106.5 90t164.5 28.5h280v-109h-139q36 -38 62 -88t26 -118zM198 266q0 -70 27.5 -113t88.5 -43t88 40t27 105q0 60 -16 103t-46 80h-24q-76 0 -110.5 -37.5
t-34.5 -134.5z" />
    <glyph glyph-name="tau#0" unicode="&#x3c4;" horiz-adv-x="538" 
d="M500 546v-112h-194v-263q0 -31 18 -46.5t47 -15.5q25 0 48 5t46 12v-111q-22 -10 -55.5 -17.5t-72.5 -7.5q-51 0 -91.5 16t-64.5 55.5t-24 109.5v263h-137v62l86 50h394z" />
    <glyph glyph-name="upsilon#0" unicode="&#x3c5;" horiz-adv-x="645" 
d="M321 -9q-98 0 -152.5 34.5t-76.5 93t-22 130.5v297h149v-302q0 -71 26 -102.5t81 -31.5q59 0 88 43t29 147q0 65 -9.5 122.5t-25.5 123.5h150q17 -65 25.5 -122.5t8.5 -127.5q0 -157 -68.5 -231t-202.5 -74z" />
    <glyph glyph-name="phi#0" unicode="&#x3c6;" horiz-adv-x="792" 
d="M157 557l108 -70q-38 -52 -59 -103t-21 -117q0 -77 38.5 -113t93.5 -47v252q0 96 55 145.5t140 49.5q109 0 172 -71t63 -194q0 -93 -41 -156t-107.5 -97t-143.5 -42v-234h-138v234q-78 9 -139.5 39.5t-97 88.5t-35.5 148q0 86 31 156t81 131zM514 446q-28 0 -43.5 -19.5
t-15.5 -66.5v-253q68 6 108.5 56t40.5 125q0 43 -8.5 79t-28.5 57.5t-53 21.5z" />
    <glyph glyph-name="chi#0" unicode="&#x3c7;" horiz-adv-x="592" 
d="M117 553q48 0 76.5 -14.5t47.5 -45.5t35 -80l36 -108l136 241h150l-222 -372l95 -232q14 -33 32 -45t46 -12q11 0 22 1t27 5v-116q-21 -7 -42 -11t-53 -4q-66 0 -103.5 36t-60.5 107l-51 159l-153 -302h-159l245 432l-65 172q-13 38 -32 51t-42 13q-10 0 -24.5 -2
t-31.5 -7v119q21 6 43 10.5t48 4.5z" />
    <glyph glyph-name="psi#0" unicode="&#x3c8;" horiz-adv-x="837" 
d="M492 759v-653q80 8 117.5 45t37.5 131q0 66 -11 130t-28 134h138q38 -137 38 -265q0 -102 -39 -164.5t-105.5 -91.5t-147.5 -34v-231h-138v231q-83 3 -147 31t-100.5 88.5t-36.5 160.5v275h142v-279q0 -85 31.5 -120.5t110.5 -41.5v654h138z" />
    <glyph glyph-name="omega#0" unicode="&#x3c9;" horiz-adv-x="863" 
d="M755 546q29 -72 42 -136.5t13 -144.5q0 -81 -24.5 -143t-73.5 -97t-122 -35q-64 0 -100.5 28t-55.5 75h-5q-19 -47 -55.5 -75t-100.5 -28q-73 0 -122 35t-73.5 97t-24.5 143q0 80 13.5 144.5t41.5 136.5h143q-31 -66 -46 -134t-15 -142q0 -73 22.5 -118.5t72.5 -45.5
q45 0 61.5 32t16.5 90v144h137v-144q0 -58 16.5 -90t61.5 -32q50 0 72.5 45.5t22.5 116.5q0 74 -14.5 143t-46.5 135h143z" />
    <glyph glyph-name="iotadieresis#0" unicode="&#x3ca;" horiz-adv-x="407" 
d="M227 546v-375q0 -31 18 -46.5t47 -15.5q25 0 48 5t46 12v-111q-22 -10 -55.5 -17.5t-72.5 -7.5q-51 0 -91.5 16t-64.5 55.5t-24 109.5v375h149zM-7 686q0 35 20 50.5t48 15.5t48.5 -15.5t20.5 -50.5q0 -33 -20.5 -49t-48.5 -16t-48 16t-20 49zM190 686q0 35 20 50.5
t49 15.5q28 0 48.5 -15.5t20.5 -50.5q0 -33 -20.5 -49t-48.5 -16q-29 0 -49 16t-20 49z" />
    <glyph glyph-name="upsilondieresis#0" unicode="&#x3cb;" horiz-adv-x="645" 
d="M321 -9q-98 0 -152.5 34.5t-76.5 93t-22 130.5v297h149v-302q0 -71 26 -102.5t81 -31.5q59 0 88 43t29 147q0 65 -9.5 122.5t-25.5 123.5h150q17 -65 25.5 -122.5t8.5 -127.5q0 -157 -68.5 -231t-202.5 -74zM148 686q0 35 20 50.5t48 15.5t48.5 -15.5t20.5 -50.5
q0 -33 -20.5 -49t-48.5 -16t-48 16t-20 49zM345 686q0 35 20 50.5t49 15.5q28 0 48.5 -15.5t20.5 -50.5q0 -33 -20.5 -49t-48.5 -16q-29 0 -49 16t-20 49z" />
    <glyph glyph-name="omicrontonos#0" unicode="&#x3cc;" horiz-adv-x="619" 
d="M574 274q0 -136 -71.5 -210t-194.5 -74q-76 0 -135.5 33t-93.5 96.5t-34 154.5q0 136 71 209t195 73q77 0 136 -33t93 -95.5t34 -153.5zM197 274q0 -81 26.5 -122.5t86.5 -41.5q59 0 85.5 41.5t26.5 122.5t-26.5 121.5t-86.5 40.5q-59 0 -85.5 -40.5t-26.5 -121.5z
M255 606v15q8 24 15.5 55t14 63t10.5 57h138v-12q-16 -39 -39 -85t-52 -93h-87z" />
    <glyph glyph-name="upsilontonos#0" unicode="&#x3cd;" horiz-adv-x="645" 
d="M321 -9q-98 0 -152.5 34.5t-76.5 93t-22 130.5v297h149v-302q0 -71 26 -102.5t81 -31.5q59 0 88 43t29 147q0 65 -9.5 122.5t-25.5 123.5h150q17 -65 25.5 -122.5t8.5 -127.5q0 -157 -68.5 -231t-202.5 -74zM261 606v15q8 24 15.5 55t14 63t10.5 57h138v-12
q-16 -39 -39 -85t-52 -93h-87z" />
    <glyph glyph-name="omegatonos#0" unicode="&#x3ce;" horiz-adv-x="863" 
d="M755 546q29 -72 42 -136.5t13 -144.5q0 -81 -24.5 -143t-73.5 -97t-122 -35q-64 0 -100.5 28t-55.5 75h-5q-19 -47 -55.5 -75t-100.5 -28q-73 0 -122 35t-73.5 97t-24.5 143q0 80 13.5 144.5t41.5 136.5h143q-31 -66 -46 -134t-15 -142q0 -73 22.5 -118.5t72.5 -45.5
q45 0 61.5 32t16.5 90v144h137v-144q0 -58 16.5 -90t61.5 -32q50 0 72.5 45.5t22.5 116.5q0 74 -14.5 143t-46.5 135h143zM381 606v15q8 24 15.5 55t14 63t10.5 57h138v-12q-16 -39 -39 -85t-52 -93h-87z" />
    <glyph glyph-name="uni0401#0" unicode="&#x401;" horiz-adv-x="560" 
d="M501 0h-411v714h411v-124h-260v-157h242v-124h-242v-184h260v-125zM133 854q0 35 20 50.5t48 15.5t48.5 -15.5t20.5 -50.5q0 -33 -20.5 -49t-48.5 -16t-48 16t-20 49zM330 854q0 35 20 50.5t49 15.5q28 0 48.5 -15.5t20.5 -50.5q0 -33 -20.5 -49t-48.5 -16q-29 0 -49 16
t-20 49z" />
    <glyph glyph-name="uni0402#0" unicode="&#x402;" horiz-adv-x="805" 
d="M553 -9q-25 0 -50.5 4.5t-48.5 14.5v125q23 -10 44.5 -15.5t39.5 -5.5q17 0 31 4.5t23 20.5t9 50v62q0 44 -20 61t-67 17h-164v-329h-151v588h-179v126h544v-126h-214v-133h170q113 0 172.5 -50.5t59.5 -142.5v-63q0 -101 -50.5 -154.5t-148.5 -53.5z" />
    <glyph glyph-name="uni0403#0" unicode="&#x403;" horiz-adv-x="561" 
d="M541 714v-125h-300v-589h-151v714h451zM518 934v-10q-14 -14 -37 -34t-49.5 -42t-52 -41.5t-44.5 -32.5h-99v13q16 18 37.5 44t42 53.5t35.5 49.5h167z" />
    <glyph glyph-name="uni0404#0" unicode="&#x404;" horiz-adv-x="677" 
d="M411 598q-81 0 -134.5 -45.5t-58.5 -130.5h309v-124h-310q6 -87 55.5 -134.5t140.5 -47.5q48 0 96.5 10t105.5 28v-127q-51 -19 -100 -28t-111 -9q-119 0 -195.5 45.5t-113.5 128t-37 192.5q0 108 41.5 191t122 130t196.5 47q64 0 118 -13.5t106 -36.5l-54 -123
q-44 19 -84.5 33t-92.5 14z" />
    <glyph glyph-name="uni0405#0" unicode="&#x405;" horiz-adv-x="551" 
d="M511 198q0 -95 -68.5 -151.5t-194.5 -56.5q-113 0 -202 43v141q51 -22 105.5 -40.5t108.5 -18.5q56 0 79.5 21.5t23.5 54.5q0 27 -18.5 46t-49.5 35.5t-71 35.5q-25 12 -54 28.5t-55.5 41t-43.5 59.5t-17 84q0 96 65 149.5t177 53.5q56 0 106.5 -13t105.5 -37l-49 -118
q-49 20 -88 31t-80 11q-43 0 -66 -20t-23 -52q0 -38 34 -60t101 -54q55 -26 93.5 -54t59.5 -66t21 -94z" />
    <glyph glyph-name="uni0406.salt#0" horiz-adv-x="389" 
d="M357 0h-325v86l87 40v462l-87 40v86h325v-86l-87 -40v-462l87 -40v-86z" />
    <glyph glyph-name="uni0407.salt#0" horiz-adv-x="389" 
d="M357 0h-325v86l87 40v462l-87 40v86h325v-86l-87 -40v-462l87 -40v-86zM27 854q0 35 20 50.5t48 15.5t48.5 -15.5t20.5 -50.5q0 -33 -20.5 -49t-48.5 -16t-48 16t-20 49zM224 854q0 35 20 50.5t49 15.5q28 0 48.5 -15.5t20.5 -50.5q0 -33 -20.5 -49t-48.5 -16
q-29 0 -49 16t-20 49z" />
    <glyph glyph-name="uni0408.salt#0" horiz-adv-x="331" 
d="M15 -210q-29 0 -51 3.5t-38 7.5v126q16 -4 33.5 -7t37.5 -3q26 0 47.5 10t33.5 38t12 80v669h151v-668q0 -92 -28.5 -148.5t-79.5 -82t-118 -25.5z" />
    <glyph glyph-name="uni0409#0" unicode="&#x409;" horiz-adv-x="999" 
d="M80 -10q-39 0 -72 11v124q13 -4 25.5 -7t27.5 -3q29 0 44.5 30.5t31.5 114.5q6 32 17 100t24.5 159.5t25.5 194.5h418v-274h56q95 0 156 -28t90.5 -77t29.5 -112q0 -106 -68 -164.5t-216 -58.5h-199v588h-142q-6 -46 -12.5 -100t-14 -109.5t-15.5 -105t-16 -87.5
q-13 -63 -34.5 -106.5t-59 -66.5t-97.5 -23zM622 124h46q62 0 97.5 22t35.5 77q0 57 -38.5 75t-105.5 18h-35v-192z" />
    <glyph glyph-name="uni040A#0" unicode="&#x40a;" horiz-adv-x="1002" 
d="M90 0v714h151v-280h233v280h151v-274h56q95 0 156 -28t90.5 -77t29.5 -112q0 -106 -68 -164.5t-216 -58.5h-199v308h-233v-308h-151zM625 124h46q62 0 97.5 22t35.5 77q0 57 -38.5 75t-105.5 18h-35v-192z" />
    <glyph glyph-name="uni040B#0" unicode="&#x40b;" horiz-adv-x="805" 
d="M564 714v-126h-214v-133h188q101 0 157.5 -50.5t56.5 -142.5v-262h-151v251q0 44 -17 61t-56 17h-178v-329h-151v588h-179v126h544z" />
    <glyph glyph-name="uni040C#0" unicode="&#x40c;" horiz-adv-x="672" 
d="M672 0h-172l-259 362v-362h-151v714h151v-346l256 346h161l-260 -343zM557 934v-10q-14 -14 -37 -34t-49.5 -42t-52 -41.5t-44.5 -32.5h-99v13q16 18 37.5 44t42 53.5t35.5 49.5h167z" />
    <glyph glyph-name="uni040E#0" unicode="&#x40e;" horiz-adv-x="663" 
d="M663 714l-221 -505q-30 -69 -63.5 -118t-85.5 -75t-136 -26q-26 0 -57 4t-57 11v130q24 -10 53 -14t54 -4q50 0 72 24.5t35 59.5l-247 513h160l133 -309q7 -15 19 -42.5t18 -46.5h5q6 18 17.5 47t20.5 51l124 300h156zM579 949q-6 -52 -29.5 -91.5t-74.5 -61.5t-137 -22
q-88 0 -137.5 21.5t-70.5 60.5t-25 93h133q5 -55 28 -73t75 -18q43 0 70.5 19.5t32.5 71.5h135z" />
    <glyph glyph-name="uni040F#0" unicode="&#x40f;" horiz-adv-x="745" 
d="M655 0h-209v-208h-146v208h-210v714h151v-588h263v588h151v-714z" />
    <glyph glyph-name="uni0410#0" unicode="&#x410;" horiz-adv-x="690" 
d="M527 0l-52 170h-260l-52 -170h-163l252 717h185l253 -717h-163zM439 297l-52 166q-5 17 -13 43t-16 53t-13 47q-5 -20 -13.5 -49.5t-16 -56t-11.5 -37.5l-51 -166h186z" />
    <glyph glyph-name="uni0411#0" unicode="&#x411;" horiz-adv-x="638" 
d="M90 0v714h451v-125h-300v-149h60q101 0 165.5 -28t95.5 -77t31 -112q0 -106 -70.5 -164.5t-224.5 -58.5h-208zM241 124h51q69 0 108.5 22t39.5 77q0 57 -43 75t-117 18h-39v-192z" />
    <glyph glyph-name="uni0412#0" unicode="&#x412;" horiz-adv-x="672" 
d="M90 714h222q143 0 216 -40t73 -141q0 -61 -28.5 -103t-81.5 -51v-5q36 -7 65 -25t46 -52t17 -90q0 -97 -70 -152t-192 -55h-267v714zM241 431h88q66 0 91.5 21t25.5 61q0 41 -30 59t-95 18h-80v-159zM241 311v-186h99q68 0 95 26.5t27 70.5q0 40 -27.5 64.5t-99.5 24.5
h-94z" />
    <glyph glyph-name="uni0413#0" unicode="&#x413;" horiz-adv-x="561" 
d="M541 714v-125h-300v-589h-151v714h451z" />
    <glyph glyph-name="uni0414#0" unicode="&#x414;" horiz-adv-x="764" 
d="M649 714v-588h95v-334h-146v208h-447v-208h-146v334h55q38 75 71 160.5t59.5 190.5t42.5 237h416zM498 588h-145q-10 -69 -29 -149.5t-46 -161t-59 -151.5h279v462z" />
    <glyph glyph-name="uni0415#0" unicode="&#x415;" horiz-adv-x="560" 
d="M501 0h-411v714h411v-124h-260v-157h242v-124h-242v-184h260v-125z" />
    <glyph glyph-name="uni0416#0" unicode="&#x416;" horiz-adv-x="943" 
d="M254 371l-240 343h156l231 -346v346h141v-346l231 346h156l-240 -343l254 -371h-162l-239 362v-362h-141v362l-239 -362h-162z" />
    <glyph glyph-name="uni0417#0" unicode="&#x417;" horiz-adv-x="648" 
d="M583 547q0 -72 -51 -116t-130 -55v-3q98 -10 150.5 -54.5t52.5 -115.5q0 -94 -76.5 -153.5t-224.5 -59.5q-81 0 -143.5 10t-108.5 29v127q31 -15 70 -25.5t79 -16t74 -5.5q95 0 137.5 27.5t42.5 77.5q0 51 -62 74.5t-167 23.5h-67v118h60q85 0 132 11t66 32t19 50
q0 37 -32.5 58.5t-97.5 21.5q-55 0 -103.5 -16t-90.5 -42l-66 101q55 36 122 57t159 21q121 0 188.5 -50t67.5 -127z" />
    <glyph glyph-name="uni0418#0" unicode="&#x418;" horiz-adv-x="823" 
d="M90 714h136v-345q0 -25 -1 -56t-2 -60.5t-2 -51t-2 -29.5h3l330 542h181v-714h-135v343q0 27 1 59.5t2.5 62.5t3 52.5t2.5 29.5h-4l-331 -547h-182v714z" />
    <glyph glyph-name="uni0419#0" unicode="&#x419;" horiz-adv-x="823" 
d="M90 714h136v-345q0 -25 -1 -56t-2 -60.5t-2 -51t-2 -29.5h3l330 542h181v-714h-135v343q0 27 1 59.5t2.5 62.5t3 52.5t2.5 29.5h-4l-331 -547h-182v714zM665 949q-6 -52 -29.5 -91.5t-74.5 -61.5t-137 -22q-88 0 -137.5 21.5t-70.5 60.5t-25 93h133q5 -55 28 -73t75 -18
q43 0 70.5 19.5t32.5 71.5h135z" />
    <glyph glyph-name="uni041A#0" unicode="&#x41a;" horiz-adv-x="672" 
d="M672 0h-172l-259 362v-362h-151v714h151v-346l256 346h161l-260 -343z" />
    <glyph glyph-name="uni041B#0" unicode="&#x41b;" horiz-adv-x="745" 
d="M655 0h-151v588h-175q-6 -46 -12.5 -100t-14 -109.5t-15.5 -105t-16 -87.5q-13 -63 -34.5 -106.5t-59 -66.5t-97.5 -23q-39 0 -72 11v124q13 -4 25.5 -7t27.5 -3q29 0 44.5 30.5t31.5 114.5q6 32 17 100t24.5 159.5t25.5 194.5h451v-714z" />
    <glyph glyph-name="uni041C#0" unicode="&#x41c;" horiz-adv-x="943" 
d="M392 0l-172 560h-4l3 -60t4 -85.5t2 -82.5v-332h-135v714h206l169 -546h3l179 546h206v-714h-141v338q0 34 1.5 78t3 83.5t2.5 59.5h-4l-184 -559h-139z" />
    <glyph glyph-name="uni041D#0" unicode="&#x41d;" horiz-adv-x="765" 
d="M675 0h-151v308h-283v-308h-151v714h151v-280h283v280h151v-714z" />
    <glyph glyph-name="uni041E#0" unicode="&#x41e;" horiz-adv-x="796" 
d="M738 358q0 -111 -36.5 -193.5t-111.5 -128.5t-192 -46q-116 0 -191.5 46t-112 129t-36.5 194q0 110 36.5 192.5t112 128t192.5 45.5q116 0 191 -45.5t111.5 -128t36.5 -193.5zM217 358q0 -112 43 -176.5t138 -64.5q97 0 139 64.5t42 176.5q0 113 -42 177t-138 64
t-139 -64t-43 -177z" />
    <glyph glyph-name="uni041F#0" unicode="&#x41f;" horiz-adv-x="745" 
d="M90 0v714h565v-714h-151v588h-263v-588h-151z" />
    <glyph glyph-name="uni0420#0" unicode="&#x420;" horiz-adv-x="628" 
d="M318 714q138 0 201.5 -59.5t63.5 -163.5q0 -62 -26 -116.5t-86.5 -87.5t-164.5 -33h-65v-254h-151v714h228zM310 590h-69v-212h50q64 0 101.5 25.5t37.5 82.5q0 104 -120 104z" />
    <glyph glyph-name="uni0421#0" unicode="&#x421;" horiz-adv-x="637" 
d="M393 598q-87 0 -133 -65t-46 -178q0 -114 42.5 -176.5t136.5 -62.5q44 0 87.5 10t94.5 28v-127q-47 -19 -93 -28t-103 -9q-110 0 -181.5 45.5t-105.5 128t-34 192.5q0 108 39 191t113.5 130t182.5 47q53 0 106.5 -13.5t102.5 -36.5l-49 -123q-40 19 -80.5 33t-79.5 14z
" />
    <glyph glyph-name="uni0422#0" unicode="&#x422;" horiz-adv-x="579" 
d="M365 0h-151v588h-194v126h539v-126h-194v-588z" />
    <glyph glyph-name="uni0423#0" unicode="&#x423;" horiz-adv-x="663" 
d="M663 714l-221 -505q-30 -69 -63.5 -118t-85.5 -75t-136 -26q-26 0 -57 4t-57 11v130q24 -10 53 -14t54 -4q50 0 72 24.5t35 59.5l-247 513h160l133 -309q7 -15 19 -42.5t18 -46.5h5q6 18 17.5 47t20.5 51l124 300h156z" />
    <glyph glyph-name="uni0424#0" unicode="&#x424;" horiz-adv-x="860" 
d="M498 724v-88q117 -3 186.5 -40.5t100 -96.5t30.5 -129q0 -45 -15.5 -92t-52 -86.5t-97.5 -64.5t-152 -27v-110h-136v110q-92 2 -153.5 27t-97.5 65t-51 86.5t-15 91.5q0 70 30.5 129t100 96.5t186.5 40.5v88h136zM362 518q-97 -4 -136 -44.5t-39 -102.5q0 -67 42 -108.5
t133 -45.5v301zM498 518v-301q92 4 133.5 45.5t41.5 108.5q0 62 -38.5 102.5t-136.5 44.5z" />
    <glyph glyph-name="uni0425#0" unicode="&#x425;" horiz-adv-x="667" 
d="M667 0h-173l-166 270l-166 -270h-162l237 368l-222 346h167l154 -257l151 257h163l-224 -354z" />
    <glyph glyph-name="uni0426#0" unicode="&#x426;" horiz-adv-x="781" 
d="M761 120v-328h-146v208h-525v714h151v-588h263v588h151v-594h106z" />
    <glyph glyph-name="uni0427#0" unicode="&#x427;" horiz-adv-x="728" 
d="M638 0h-151v276q-63 -22 -115.5 -33t-105.5 -11q-100 0 -156.5 48.5t-56.5 138.5v295h151v-252q0 -52 24 -78t81 -26q42 0 84 9t94 27v320h151v-714z" />
    <glyph glyph-name="uni0428#0" unicode="&#x428;" horiz-adv-x="1078" 
d="M988 0h-898v714h151v-588h222v588h152v-588h222v588h151v-714z" />
    <glyph glyph-name="uni0429#0" unicode="&#x429;" horiz-adv-x="1114" 
d="M1094 120v-328h-146v208h-858v714h151v-588h222v588h152v-588h222v588h151v-594h106z" />
    <glyph glyph-name="uni042A#0" unicode="&#x42a;" horiz-adv-x="727" 
d="M179 0v588h-179v126h330v-274h60q101 0 165.5 -28t95.5 -77t31 -112q0 -106 -70.5 -164.5t-224.5 -58.5h-208zM330 124h51q69 0 108.5 22t39.5 77q0 57 -43 75t-117 18h-39v-192z" />
    <glyph glyph-name="uni042B#0" unicode="&#x42b;" horiz-adv-x="906" 
d="M90 0v714h151v-274h49q99 0 163 -28t94.5 -77t30.5 -112q0 -106 -70 -164.5t-223 -58.5h-195zM665 0v714h151v-714h-151zM241 124h40q67 0 105.5 22t38.5 77q0 57 -39.5 75t-111.5 18h-33v-192z" />
    <glyph glyph-name="uni042C#0" unicode="&#x42c;" horiz-adv-x="638" 
d="M90 0v714h151v-274h60q101 0 165.5 -28t95.5 -77t31 -112q0 -106 -70.5 -164.5t-224.5 -58.5h-208zM241 124h51q69 0 108.5 22t39.5 77q0 57 -43 75t-117 18h-39v-192z" />
    <glyph glyph-name="uni042D#0" unicode="&#x42d;" horiz-adv-x="663" 
d="M270 598q-48 0 -95 -13.5t-92 -32.5l-48 122q53 23 112 36.5t126 13.5q158 0 245 -96.5t87 -271.5q0 -110 -37 -192.5t-113.5 -128t-195.5 -45.5q-61 0 -110.5 9t-100.5 28v127q57 -18 105.5 -28t96.5 -10q92 0 142 45.5t54 136.5h-310v124h309q-3 83 -50 129.5
t-125 46.5z" />
    <glyph glyph-name="uni042E#0" unicode="&#x42e;" horiz-adv-x="1070" 
d="M1012 358q0 -111 -34.5 -193.5t-105 -128.5t-178.5 -46q-100 0 -167.5 39.5t-104 111t-44.5 167.5h-137v-308h-151v714h151v-280h140q16 134 93 212.5t221 78.5q108 0 178.5 -45.5t104.5 -128t34 -193.5zM533 358q0 -112 39 -176.5t122 -64.5q86 0 124 64.5t38 176.5
q0 113 -38 177t-122 64q-85 0 -124 -64t-39 -177z" />
    <glyph glyph-name="uni042F#0" unicode="&#x42f;" horiz-adv-x="665" 
d="M330 274l-167 -274h-168l203 314q-29 12 -58 35.5t-48 63t-19 97.5q0 99 71 151.5t199 52.5h232v-714h-151v274h-94zM424 590h-75q-58 0 -90.5 -21t-32.5 -70q0 -47 31.5 -74.5t95.5 -27.5h71v193z" />
    <glyph glyph-name="uni0430#0" unicode="&#x430;" horiz-adv-x="604" 
d="M302 557q110 0 168.5 -47.5t58.5 -145.5v-364h-104l-29 74h-4q-35 -44 -74 -64t-107 -20q-73 0 -121 42.5t-48 130.5q0 87 61 128.5t183 45.5l95 3v24q0 43 -22.5 63t-62.5 20t-78 -11.5t-76 -28.5l-49 101q44 23 97.5 36t111.5 13zM381 253l-58 -2q-72 -2 -100 -26
t-28 -63q0 -34 20 -48.5t52 -14.5q48 0 81 28.5t33 80.5v45z" />
    <glyph glyph-name="uni0431#0" unicode="&#x431;" horiz-adv-x="622" 
d="M45 327q0 181 68.5 281t226.5 128q53 9 107.5 15.5t112.5 13.5l17 -130q-34 -4 -74.5 -9t-80 -9.5t-70.5 -9.5q-50 -8 -83 -24.5t-51 -52.5t-21 -104h7q12 19 33.5 38t53.5 32t73 13q98 0 155.5 -60t57.5 -179q0 -93 -34 -155t-94 -93.5t-139 -31.5q-121 0 -193 87
t-72 250zM319 111q47 0 76.5 32t29.5 114q0 65 -21.5 103.5t-74.5 38.5q-32 0 -59.5 -15.5t-46.5 -35t-26 -33.5q0 -52 11 -98.5t37.5 -76t73.5 -29.5z" />
    <glyph glyph-name="uni0432#0" unicode="&#x432;" horiz-adv-x="629" 
d="M562 403q0 -44 -27.5 -75t-81.5 -40v-4q57 -7 91.5 -39t34.5 -82q0 -47 -24.5 -84t-77.5 -58t-139 -21h-260v546h260q64 0 114.5 -13.5t80 -45t29.5 -84.5zM411 391q0 50 -79 50h-105v-108h88q47 0 71.5 13.5t24.5 44.5zM425 171q0 32 -25 46.5t-75 14.5h-98v-129h101
q42 0 69.5 15.5t27.5 52.5z" />
    <glyph glyph-name="uni0433#0" unicode="&#x433;" horiz-adv-x="478" 
d="M455 546v-112h-228v-434h-149v546h377z" />
    <glyph glyph-name="uni0434#0" unicode="&#x434;" horiz-adv-x="664" 
d="M569 546v-437h80v-305h-134v196h-367v-196h-134v305h46q36 55 61 125.5t40 150t22 161.5h386zM420 434h-112q-12 -91 -33 -172.5t-59 -152.5h204v325z" />
    <glyph glyph-name="uni0435#0" unicode="&#x435;" horiz-adv-x="591" 
d="M303 556q113 0 179 -64.5t66 -183.5v-72h-352q2 -63 37.5 -99t98.5 -36q53 0 96 10.5t89 32.5v-115q-40 -20 -84.5 -29.5t-107.5 -9.5q-82 0 -145 30.5t-99 92.5t-36 156q0 95 32.5 159t90.5 96t135 32zM304 450q-43 0 -71.5 -28t-33.5 -87h209q-1 50 -26 82.5t-78 32.5z
" />
    <glyph glyph-name="uni0436#0" unicode="&#x436;" horiz-adv-x="873" 
d="M854 546l-201 -262l220 -284h-159l-208 277v-277h-139v277l-208 -277h-159l220 284l-201 262h154l194 -265v265h139v-265l194 265h154z" />
    <glyph glyph-name="uni0437#0" unicode="&#x437;" horiz-adv-x="555" 
d="M277 556q59 0 110.5 -15.5t83 -47.5t31.5 -82q0 -49 -29.5 -78t-79.5 -42v-5q35 -8 63 -22.5t44.5 -39t16.5 -65.5q0 -45 -28.5 -83.5t-88.5 -62t-152 -23.5q-136 0 -210 34v123q34 -16 83.5 -29t105.5 -13q61 0 103 14t42 49q0 65 -155 65h-58v103h55q74 0 114.5 12
t40.5 45q0 26 -26 39.5t-85 13.5q-39 0 -85 -9t-87 -26l-44 104q47 18 103 29.5t132 11.5z" />
    <glyph glyph-name="uni0438#0" unicode="&#x438;" horiz-adv-x="720" 
d="M222 546v-216q0 -17 -1.5 -42t-3 -51t-3.5 -46t-3 -28l252 383h179v-546h-144v218q0 27 2 59.5t4.5 61t3.5 43.5l-251 -382h-179v546h144z" />
    <glyph glyph-name="uni0439#0" unicode="&#x439;" horiz-adv-x="720" 
d="M222 546v-216q0 -17 -1.5 -42t-3 -51t-3.5 -46t-3 -28l252 383h179v-546h-144v218q0 27 2 59.5t4.5 61t3.5 43.5l-251 -382h-179v546h144zM601 781q-6 -52 -29.5 -91.5t-74.5 -61.5t-137 -22q-88 0 -137.5 21.5t-70.5 60.5t-25 93h133q5 -55 28 -73t75 -18
q43 0 70.5 19.5t32.5 71.5h135z" />
    <glyph glyph-name="uni043A#0" unicode="&#x43a;" horiz-adv-x="619" 
d="M436 546h164l-216 -262l235 -284h-169l-223 277v-277h-149v546h149v-265z" />
    <glyph glyph-name="uni043B#0" unicode="&#x43b;" horiz-adv-x="645" 
d="M567 0h-149v434h-137q-13 -160 -34.5 -257.5t-59.5 -142t-102 -44.5q-52 0 -85 16v119q23 -10 48 -10q18 0 33 18t28.5 65t24.5 131.5t20 216.5h413v-546z" />
    <glyph glyph-name="uni043C#0" unicode="&#x43c;" horiz-adv-x="844" 
d="M766 546v-546h-139v268q0 40 1.5 78t4.5 70h-3l-151 -416h-112l-153 417h-4q4 -33 5.5 -70.5t1.5 -82.5v-264h-139v546h211l136 -370l138 370h203z" />
    <glyph glyph-name="uni043D#0" unicode="&#x43d;" horiz-adv-x="662" 
d="M227 546v-210h208v210h149v-546h-149v225h-208v-225h-149v546h149z" />
    <glyph glyph-name="uni043E#0" unicode="&#x43e;" horiz-adv-x="619" 
d="M574 274q0 -136 -71.5 -210t-194.5 -74q-76 0 -135.5 33t-93.5 96.5t-34 154.5q0 136 71 209t195 73q77 0 136 -33t93 -95.5t34 -153.5zM197 274q0 -81 26.5 -122.5t86.5 -41.5q59 0 85.5 41.5t26.5 122.5t-26.5 121.5t-86.5 40.5q-59 0 -85.5 -40.5t-26.5 -121.5z" />
    <glyph glyph-name="uni043F#0" unicode="&#x43f;" horiz-adv-x="652" 
d="M574 546v-546h-149v434h-198v-434h-149v546h496z" />
    <glyph glyph-name="uni0440#0" unicode="&#x440;" horiz-adv-x="633" 
d="M382 556q92 0 149 -71.5t57 -210.5t-59 -211.5t-151 -72.5q-59 0 -94 21.5t-57 48.5h-8q8 -42 8 -80v-220h-149v786h121l21 -71h7q22 33 59 57t96 24zM334 437q-58 0 -81.5 -36t-25.5 -110v-16q0 -79 23.5 -121.5t85.5 -42.5q51 0 75.5 42.5t24.5 122.5q0 161 -102 161z
" />
    <glyph glyph-name="uni0441#0" unicode="&#x441;" horiz-adv-x="514" 
d="M300 -10q-122 0 -188.5 67.5t-66.5 212.5q0 100 34 163t94.5 93t139.5 30q56 0 97.5 -11t72.5 -26l-44 -115q-35 14 -65.5 23t-60.5 9q-116 0 -116 -165q0 -82 30.5 -121t85.5 -39q47 0 83 12.5t70 34.5v-127q-34 -22 -71.5 -31.5t-94.5 -9.5z" />
    <glyph glyph-name="uni0442#0" unicode="&#x442;" horiz-adv-x="553" 
d="M530 434h-179v-434h-149v434h-179v112h507v-112z" />
    <glyph glyph-name="uni0443#0" unicode="&#x443;" horiz-adv-x="569" 
d="M0 546h163l103 -307q8 -22 12 -45.5t6 -49.5h3q3 26 8.5 49.5t12.5 45.5l101 307h160l-231 -616q-31 -85 -90.5 -127.5t-137.5 -42.5q-25 0 -43.5 2.5t-32.5 5.5v118q11 -2 26.5 -4t32.5 -2q47 0 74.5 28.5t40.5 68.5l9 27z" />
    <glyph glyph-name="uni0444#0" unicode="&#x444;" horiz-adv-x="814" 
d="M477 760v-211q142 -12 217 -86.5t75 -189.5t-73 -190t-219 -87v-236h-138v236q-141 13 -217.5 88t-76.5 189q0 117 71.5 191.5t222.5 84.5v211h138zM339 437q-65 -9 -103 -54t-38 -110q0 -67 37 -111.5t104 -52.5v328zM477 435v-326q67 8 103 52.5t36 111.5
q0 65 -37 109.5t-102 52.5z" />
    <glyph glyph-name="uni0445#0" unicode="&#x445;" horiz-adv-x="578" 
d="M190 279l-176 267h169l106 -174l107 174h169l-178 -267l186 -279h-169l-115 187l-115 -187h-169z" />
    <glyph glyph-name="uni0446#0" unicode="&#x446;" horiz-adv-x="688" 
d="M674 -196h-134v196h-462v546h149v-434h218v434h149v-437h80v-305z" />
    <glyph glyph-name="uni0447#0" unicode="&#x447;" horiz-adv-x="656" 
d="M209 546v-200q0 -71 66 -71q43 0 80 9.5t74 25.5v236h149v-546h-149v217q-35 -19 -80 -34.5t-102 -15.5q-85 0 -136 44t-51 132v203h149z" />
    <glyph glyph-name="uni0448#0" unicode="&#x448;" horiz-adv-x="969" 
d="M891 546v-546h-813v546h149v-434h183v434h149v-434h183v434h149z" />
    <glyph glyph-name="uni0449#0" unicode="&#x449;" horiz-adv-x="985" 
d="M891 546v-437h80v-305h-134v196h-759v546h149v-434h183v434h149v-434h183v434h149z" />
    <glyph glyph-name="uni044A#0" unicode="&#x44a;" horiz-adv-x="710" 
d="M323 546v-211h105q126 0 186.5 -40t60.5 -121q0 -79 -56 -126.5t-185 -47.5h-260v434h-174v112h323zM425 232h-102v-129h104q44 0 71.5 16t27.5 53q0 60 -101 60z" />
    <glyph glyph-name="uni044B#0" unicode="&#x44b;" horiz-adv-x="850" 
d="M78 0v546h149v-211h72q125 0 185 -40t60 -121q0 -79 -56 -126.5t-184 -47.5h-226zM623 0v546h149v-546h-149zM227 103h69q44 0 71.5 16t27.5 53q0 60 -101 60h-67v-129z" />
    <glyph glyph-name="uni044C#0" unicode="&#x44c;" horiz-adv-x="614" 
d="M227 335h105q126 0 186.5 -40t60.5 -121q0 -79 -56 -126.5t-185 -47.5h-260v546h149v-211zM430 172q0 60 -101 60h-102v-129h104q44 0 71.5 16t27.5 53z" />
    <glyph glyph-name="uni044D#0" unicode="&#x44d;" horiz-adv-x="512" 
d="M204 -10q-52 0 -92.5 8t-75.5 26v116q36 -16 76.5 -27.5t83.5 -11.5q51 0 82 29t35 96h-206v99h206q-7 121 -105 121q-35 0 -67.5 -9.5t-59.5 -21.5l-42 102q32 14 77.5 26.5t97.5 12.5q71 0 128.5 -25t91 -85t33.5 -167q0 -148 -69 -218.5t-194 -70.5z" />
    <glyph glyph-name="uni044E#0" unicode="&#x44e;" horiz-adv-x="877" 
d="M832 274q0 -136 -68.5 -210t-187.5 -74q-101 0 -169 57.5t-82 177.5h-98v-225h-149v546h149v-210h100q15 107 82 163.5t170 56.5q74 0 131 -33t89.5 -95.5t32.5 -153.5zM475 274q0 -81 24 -122.5t79 -41.5q54 0 78 41.5t24 122.5t-24 121.5t-79 40.5q-54 0 -78 -40.5
t-24 -121.5z" />
    <glyph glyph-name="uni044F#0" unicode="&#x44f;" horiz-adv-x="593" 
d="M161 0h-161l147 216q-42 17 -74.5 55.5t-32.5 105.5q0 82 62 125.5t159 43.5h254v-546h-149v203h-82zM186 376q0 -34 27 -53.5t70 -19.5h83v138h-102q-40 0 -59 -19.5t-19 -45.5z" />
    <glyph glyph-name="uni0451#0" unicode="&#x451;" horiz-adv-x="591" 
d="M303 556q113 0 179 -64.5t66 -183.5v-72h-352q2 -63 37.5 -99t98.5 -36q53 0 96 10.5t89 32.5v-115q-40 -20 -84.5 -29.5t-107.5 -9.5q-82 0 -145 30.5t-99 92.5t-36 156q0 95 32.5 159t90.5 96t135 32zM304 450q-43 0 -71.5 -28t-33.5 -87h209q-1 50 -26 82.5t-78 32.5z
M128 686q0 35 20 50.5t48 15.5t48.5 -15.5t20.5 -50.5q0 -33 -20.5 -49t-48.5 -16t-48 16t-20 49zM325 686q0 35 20 50.5t49 15.5q28 0 48.5 -15.5t20.5 -50.5q0 -33 -20.5 -49t-48.5 -16q-29 0 -49 16t-20 49z" />
    <glyph glyph-name="uni0452#0" unicode="&#x452;" horiz-adv-x="657" 
d="M405 -240q-23 0 -48 3.5t-42 8.5v117q15 -4 28.5 -6.5t29.5 -2.5q25 0 42.5 17t17.5 66v337q0 53 -23 80t-65 27q-67 0 -92.5 -46.5t-25.5 -133.5v-227h-149v584h-76v97h76v79h149v-79h154v-97h-154v-9q0 -40 -2.5 -77t-4.5 -52h9q26 42 66.5 61t91.5 19q89 0 142 -47.5
t53 -152.5v-385q0 -50 -17.5 -91t-56.5 -65.5t-103 -24.5z" />
    <glyph glyph-name="uni0453#0" unicode="&#x453;" horiz-adv-x="478" 
d="M455 546v-112h-228v-434h-149v546h377zM466 766v-10q-14 -14 -37 -34t-49.5 -42t-52 -41.5t-44.5 -32.5h-99v13q16 18 37.5 44t42 53.5t35.5 49.5h167z" />
    <glyph glyph-name="uni0454#0" unicode="&#x454;" horiz-adv-x="524" 
d="M319 -10q-126 0 -200 66t-74 214q0 109 34 171.5t95.5 88.5t143.5 26q91 0 174 -36l-43 -106q-37 14 -70.5 23t-64.5 9q-100 0 -115 -121h206v-99h-206q13 -125 111 -125q48 0 87 11t79 28v-114q-35 -18 -72.5 -27t-84.5 -9z" />
    <glyph glyph-name="uni0455#0" unicode="&#x455;" horiz-adv-x="497" 
d="M459 162q0 -83 -58.5 -127.5t-174.5 -44.5q-57 0 -98 7.5t-82 24.5v123q44 -20 95 -33t90 -13q44 0 62.5 13t18.5 34q0 14 -7.5 25t-32.5 25t-78 36q-51 21 -84 43t-49 52.5t-16 76.5q0 76 59 114t157 38q51 0 97 -10t95 -33l-45 -107q-40 17 -76 28.5t-73 11.5
q-66 0 -66 -36q0 -13 8.5 -23.5t33 -22.5t72.5 -32q47 -19 81 -39.5t52.5 -51.5t18.5 -79z" />
    <glyph glyph-name="uni0456#0" unicode="&#x456;" horiz-adv-x="305" 
d="M153 760q33 0 57 -15.5t24 -57.5q0 -41 -24 -57t-57 -16q-34 0 -57.5 16t-23.5 57q0 42 23.5 57.5t57.5 15.5zM227 546v-546h-149v546h149z" />
    <glyph glyph-name="uni0457#0" unicode="&#x457;" horiz-adv-x="305" 
d="M227 0h-149v546h149v-546zM-15 686q0 35 20 50.5t48 15.5t48.5 -15.5t20.5 -50.5q0 -33 -20.5 -49t-48.5 -16t-48 16t-20 49zM182 686q0 35 20 50.5t49 15.5q28 0 48.5 -15.5t20.5 -50.5q0 -33 -20.5 -49t-48.5 -16q-29 0 -49 16t-20 49z" />
    <glyph glyph-name="uni0458#0" unicode="&#x458;" horiz-adv-x="305" 
d="M72 687q0 42 23.5 57.5t57.5 15.5q33 0 57 -15.5t24 -57.5q0 -41 -24 -57t-57 -16q-34 0 -57.5 16t-23.5 57zM34 -240q-25 0 -52.5 3.5t-45.5 8.5v117q18 -4 34 -6.5t36 -2.5q30 0 51 17t21 66v583h149v-605q0 -50 -19 -91t-61.5 -65.5t-112.5 -24.5z" />
    <glyph glyph-name="uni0459#0" unicode="&#x459;" horiz-adv-x="888" 
d="M546 546v-211h69q122 0 180 -40t58 -121q0 -79 -54.5 -126.5t-180.5 -47.5h-221v434h-116q-13 -160 -34.5 -257.5t-59.5 -142t-102 -44.5q-52 0 -85 16v119q23 -10 48 -10q18 0 33 18t28.5 65t24.5 131.5t20 216.5h392zM609 232h-63v-129h65q41 0 67 16t26 53
q0 60 -95 60z" />
    <glyph glyph-name="uni045A#0" unicode="&#x45a;" horiz-adv-x="888" 
d="M546 546v-211h69q122 0 180 -40t58 -121q0 -79 -54.5 -126.5t-180.5 -47.5h-221v225h-170v-225h-149v546h149v-210h170v210h149zM609 232h-63v-129h65q41 0 67 16t26 53q0 60 -95 60z" />
    <glyph glyph-name="uni045B#0" unicode="&#x45b;" horiz-adv-x="657" 
d="M227 760v-79h154v-97h-154v-9q0 -40 -2.5 -77t-4.5 -52h9q26 42 66.5 61t91.5 19q89 0 142 -47.5t53 -152.5v-326h-149v289q0 118 -88 118q-67 0 -92.5 -46.5t-25.5 -133.5v-227h-149v584h-76v97h76v79h149z" />
    <glyph glyph-name="uni045C#0" unicode="&#x45c;" horiz-adv-x="619" 
d="M436 546h164l-216 -262l235 -284h-169l-223 277v-277h-149v546h149v-265zM521 766v-10q-14 -14 -37 -34t-49.5 -42t-52 -41.5t-44.5 -32.5h-99v13q16 18 37.5 44t42 53.5t35.5 49.5h167z" />
    <glyph glyph-name="uni045E#0" unicode="&#x45e;" horiz-adv-x="569" 
d="M0 546h163l103 -307q8 -22 12 -45.5t6 -49.5h3q3 26 8.5 49.5t12.5 45.5l101 307h160l-231 -616q-31 -85 -90.5 -127.5t-137.5 -42.5q-25 0 -43.5 2.5t-32.5 5.5v118q11 -2 26.5 -4t32.5 -2q47 0 74.5 28.5t40.5 68.5l9 27zM526 781q-6 -52 -29.5 -91.5t-74.5 -61.5
t-137 -22q-88 0 -137.5 21.5t-70.5 60.5t-25 93h133q5 -55 28 -73t75 -18q43 0 70.5 19.5t32.5 71.5h135z" />
    <glyph glyph-name="uni045F#0" unicode="&#x45f;" horiz-adv-x="672" 
d="M269 0h-191v546h149v-434h218v434h149v-546h-191v-196h-134v196z" />
    <glyph glyph-name="uni0490#0" unicode="&#x490;" horiz-adv-x="581" 
d="M561 865v-276h-320v-589h-151v714h340v151h131z" />
    <glyph glyph-name="uni0491#0" unicode="&#x491;" horiz-adv-x="512" 
d="M476 695v-261h-249v-434h-149v546h264v149h134z" />
    <glyph glyph-name="Wgrave#0" unicode="&#x1e80;" horiz-adv-x="967" 
d="M967 714l-182 -714h-172l-97 375q-3 11 -7.5 33t-10 48t-9.5 49.5t-6 36.5q-1 -13 -5.5 -36.5t-9.5 -49t-10 -48t-8 -34.5l-96 -374h-172l-182 714h149l91 -390q6 -23 13 -58t13 -70t9 -59q3 25 9 59.5t12.5 67t11.5 50.5l104 400h143l104 -400q5 -17 11.5 -50t12.5 -68
t9 -59q3 24 9 59t13 70t13 58l91 390h149zM460 934q15 -22 35.5 -49.5t42 -53.5t37.5 -44v-13h-99q-19 13 -44.5 32.5t-52 41.5t-49.5 42t-37 34v10h167z" />
    <glyph glyph-name="wgrave#0" unicode="&#x1e81;" horiz-adv-x="856" 
d="M527 0l-42 191q-4 17 -11.5 50.5t-16.5 72t-17 71t-11 47.5h-4q-3 -15 -10.5 -47.5t-16.5 -71t-17 -72.5t-12 -52l-44 -189h-160l-155 546h148l63 -242q6 -25 12 -60t10.5 -67.5t7.5 -51.5h4q1 14 4 37.5t7.5 48.5t8 45.5t5.5 27.5l67 262h164l64 -262q3 -14 9 -45
t10.5 -63.5t4.5 -50.5h4q2 17 7 49.5t11.5 68.5t13.5 61l65 242h146l-157 -546h-162zM404 766q15 -22 35.5 -49.5t42 -53.5t37.5 -44v-13h-99q-19 13 -44.5 32.5t-52 41.5t-49.5 42t-37 34v10h167z" />
    <glyph glyph-name="Wacute#0" unicode="&#x1e82;" horiz-adv-x="967" 
d="M967 714l-182 -714h-172l-97 375q-3 11 -7.5 33t-10 48t-9.5 49.5t-6 36.5q-1 -13 -5.5 -36.5t-9.5 -49t-10 -48t-8 -34.5l-96 -374h-172l-182 714h149l91 -390q6 -23 13 -58t13 -70t9 -59q3 25 9 59.5t12.5 67t11.5 50.5l104 400h143l104 -400q5 -17 11.5 -50t12.5 -68
t9 -59q3 24 9 59t13 70t13 58l91 390h149zM676 934v-10q-14 -14 -37 -34t-49.5 -42t-52 -41.5t-44.5 -32.5h-99v13q16 18 37.5 44t42 53.5t35.5 49.5h167z" />
    <glyph glyph-name="wacute#0" unicode="&#x1e83;" horiz-adv-x="856" 
d="M527 0l-42 191q-4 17 -11.5 50.5t-16.5 72t-17 71t-11 47.5h-4q-3 -15 -10.5 -47.5t-16.5 -71t-17 -72.5t-12 -52l-44 -189h-160l-155 546h148l63 -242q6 -25 12 -60t10.5 -67.5t7.5 -51.5h4q1 14 4 37.5t7.5 48.5t8 45.5t5.5 27.5l67 262h164l64 -262q3 -14 9 -45
t10.5 -63.5t4.5 -50.5h4q2 17 7 49.5t11.5 68.5t13.5 61l65 242h146l-157 -546h-162zM620 766v-10q-14 -14 -37 -34t-49.5 -42t-52 -41.5t-44.5 -32.5h-99v13q16 18 37.5 44t42 53.5t35.5 49.5h167z" />
    <glyph glyph-name="Wdieresis#0" unicode="&#x1e84;" horiz-adv-x="967" 
d="M967 714l-182 -714h-172l-97 375q-3 11 -7.5 33t-10 48t-9.5 49.5t-6 36.5q-1 -13 -5.5 -36.5t-9.5 -49t-10 -48t-8 -34.5l-96 -374h-172l-182 714h149l91 -390q6 -23 13 -58t13 -70t9 -59q3 25 9 59.5t12.5 67t11.5 50.5l104 400h143l104 -400q5 -17 11.5 -50t12.5 -68
t9 -59q3 24 9 59t13 70t13 58l91 390h149zM316 854q0 35 20 50.5t48 15.5t48.5 -15.5t20.5 -50.5q0 -33 -20.5 -49t-48.5 -16t-48 16t-20 49zM513 854q0 35 20 50.5t49 15.5q28 0 48.5 -15.5t20.5 -50.5q0 -33 -20.5 -49t-48.5 -16q-29 0 -49 16t-20 49z" />
    <glyph glyph-name="wdieresis#0" unicode="&#x1e85;" horiz-adv-x="856" 
d="M527 0l-42 191q-4 17 -11.5 50.5t-16.5 72t-17 71t-11 47.5h-4q-3 -15 -10.5 -47.5t-16.5 -71t-17 -72.5t-12 -52l-44 -189h-160l-155 546h148l63 -242q6 -25 12 -60t10.5 -67.5t7.5 -51.5h4q1 14 4 37.5t7.5 48.5t8 45.5t5.5 27.5l67 262h164l64 -262q3 -14 9 -45
t10.5 -63.5t4.5 -50.5h4q2 17 7 49.5t11.5 68.5t13.5 61l65 242h146l-157 -546h-162zM260 686q0 35 20 50.5t48 15.5t48.5 -15.5t20.5 -50.5q0 -33 -20.5 -49t-48.5 -16t-48 16t-20 49zM457 686q0 35 20 50.5t49 15.5q28 0 48.5 -15.5t20.5 -50.5q0 -33 -20.5 -49t-48.5 -16
q-29 0 -49 16t-20 49z" />
    <glyph glyph-name="Ygrave#0" unicode="&#x1ef2;" horiz-adv-x="624" 
d="M312 420l149 294h163l-237 -436v-278h-150v273l-237 441h164zM288 934q15 -22 35.5 -49.5t42 -53.5t37.5 -44v-13h-99q-19 13 -44.5 32.5t-52 41.5t-49.5 42t-37 34v10h167z" />
    <glyph glyph-name="ygrave#0" unicode="&#x1ef3;" horiz-adv-x="569" 
d="M0 546h163l103 -307q8 -22 12 -45.5t6 -49.5h3q3 26 8.5 49.5t12.5 45.5l101 307h160l-231 -616q-31 -85 -90.5 -127.5t-137.5 -42.5q-25 0 -43.5 2.5t-32.5 5.5v118q11 -2 26.5 -4t32.5 -2q47 0 74.5 28.5t40.5 68.5l9 27zM261 766q15 -22 35.5 -49.5t42 -53.5t37.5 -44
v-13h-99q-19 13 -44.5 32.5t-52 41.5t-49.5 42t-37 34v10h167z" />
    <glyph glyph-name="endash#0" unicode="&#x2013;" horiz-adv-x="500" 
d="M40 213v112h420v-112h-420z" />
    <glyph glyph-name="emdash#0" unicode="&#x2014;" horiz-adv-x="1000" 
d="M40 213v112h920v-112h-920z" />
    <glyph glyph-name="underscoredbl#0" horiz-adv-x="411" 
d="M413 -90h-415v68h415v-68zM413 -226h-415v68h415v-68z" />
    <glyph glyph-name="quoteleft#0" unicode="&#x2018;" horiz-adv-x="217" 
d="M19 469l-7 11q14 53 37.5 116t48.5 118h107q-14 -59 -27.5 -126t-21.5 -119h-137z" />
    <glyph glyph-name="quoteright#0" unicode="&#x2019;" horiz-adv-x="217" 
d="M198 714l7 -11q-13 -53 -37 -116t-49 -118h-107q14 59 28 126t21 119h137z" />
    <glyph glyph-name="quotesinglbase#0" unicode="&#x201a;" horiz-adv-x="285" 
d="M217 116l7 -11q-13 -53 -37 -116t-49 -118h-107q14 59 28 126t21 119h137z" />
    <glyph glyph-name="quotereversed#0" unicode="&#x201b;" horiz-adv-x="217" 
d="M156 714q8 -52 21.5 -119t27.5 -126h-107q-25 55 -48.5 118t-37.5 116l7 11h137z" />
    <glyph glyph-name="quotedblleft#0" unicode="&#x201c;" horiz-adv-x="445" 
d="M433 714q-14 -59 -27.5 -126t-21.5 -119h-137l-7 11q14 53 37.5 116t48.5 118h107zM205 714q-14 -59 -27.5 -126t-21.5 -119h-137l-7 11q14 53 37.5 116t48.5 118h107z" />
    <glyph glyph-name="quotedblright#0" unicode="&#x201d;" horiz-adv-x="445" 
d="M426 714l7 -11q-13 -53 -37 -116t-49 -118h-107q14 59 28 126t21 119h137zM198 714l7 -11q-13 -53 -37 -116t-49 -118h-107q14 59 28 126t21 119h137z" />
    <glyph glyph-name="quotedblbase#0" unicode="&#x201e;" horiz-adv-x="513" 
d="M445 116l7 -11q-13 -53 -37 -116t-49 -118h-107q14 59 28 126t21 119h137zM217 116l7 -11q-13 -53 -37 -116t-49 -118h-107q14 59 28 126t21 119h137z" />
    <glyph glyph-name="dagger#0" unicode="&#x2020;" horiz-adv-x="516" 
d="M456 453l-162 15l27 -468h-136l27 468l-152 -15v118l152 -15l-27 204h136l-27 -204l162 15v-118z" />
    <glyph glyph-name="daggerdbl#0" unicode="&#x2021;" horiz-adv-x="516" 
d="M299 272l162 15v-118l-162 15l27 -184h-136l27 184l-162 -15v118l162 -15l-23 112l23 104l-162 -15v118l162 -15l-27 184h136l-27 -184l162 15v-118l-162 15l23 -104z" />
    <glyph glyph-name="bullet#0" unicode="&#x2022;" horiz-adv-x="376" 
d="M48 365q0 84 40.5 119.5t99.5 35.5q39 0 70.5 -15.5t50.5 -49.5t19 -90q0 -82 -41 -118.5t-99 -36.5q-59 0 -99.5 36.5t-40.5 118.5z" />
    <glyph glyph-name="ellipsis#0" unicode="&#x2026;" horiz-adv-x="855" 
d="M57 70q0 46 25 64.5t61 18.5q35 0 60 -18.5t25 -64.5q0 -44 -25 -63.5t-60 -19.5q-36 0 -61 19.5t-25 63.5zM342 70q0 46 25 64.5t61 18.5q35 0 60 -18.5t25 -64.5q0 -44 -25 -63.5t-60 -19.5q-36 0 -61 19.5t-25 63.5zM627 70q0 46 25 64.5t61 18.5q35 0 60 -18.5
t25 -64.5q0 -44 -25 -63.5t-60 -19.5q-36 0 -61 19.5t-25 63.5z" />
    <glyph glyph-name="perthousand#0" unicode="&#x2030;" horiz-adv-x="1281" 
d="M199 724q84 0 127.5 -58.5t43.5 -164.5t-41 -165.5t-130 -59.5q-82 0 -125 59.5t-43 165.5t40 164.5t128 58.5zM706 714l-396 -714h-117l396 714h117zM200 622q-46 0 -46 -122q0 -123 46 -123q47 0 47 123q0 122 -47 122zM699 439q84 0 127.5 -58.5t43.5 -164.5
t-41 -165.5t-130 -59.5q-82 0 -125 59.5t-43 165.5t40 164.5t128 58.5zM1079 439q84 0 127.5 -58.5t43.5 -164.5t-41 -165.5t-130 -59.5q-82 0 -125 59.5t-43 165.5t40 164.5t128 58.5zM700 337q-46 0 -46 -122q0 -123 46 -123q47 0 47 123q0 122 -47 122zM1080 337
q-46 0 -46 -122q0 -123 46 -123q47 0 47 123q0 122 -47 122z" />
    <glyph glyph-name="guilsinglleft#0" unicode="&#x2039;" horiz-adv-x="368" 
d="M40 280l181 222l107 -58l-136 -170l136 -170l-107 -58l-181 221v13z" />
    <glyph glyph-name="guilsinglright#0" unicode="&#x203a;" horiz-adv-x="368" 
d="M147 502l181 -222v-13l-181 -221l-107 58l136 170l-136 170z" />
    <glyph glyph-name="fraction#0" unicode="&#x2044;" horiz-adv-x="130" 
d="M321 714l-396 -714h-117l396 714h117z" />
    <glyph glyph-name="uni207F#0" horiz-adv-x="427" 
d="M252.209 505.779q57.2031 0 91.6543 -28.499t34.4512 -91.4961v-213.591h-96.8535v191.392q0 35.3984 -13.6504 53.0977q-13.6514 17.7002 -43.5518 17.7002q-44.2021 0 -60.4521 -27.8994q-16.251 -27.8984 -16.251 -80.0967v-154.193h-96.8535v327.586h74.1025
l13 -41.998h5.20117q16.9004 25.1992 46.4766 36.5986t62.7266 11.3994z" />
    <glyph glyph-name="franc#0" unicode="&#x20a3;" horiz-adv-x="572" 
d="M90 0v128h-73v87h73v499h429v-124h-280v-164h262v-124h-262v-87h154v-87h-154v-128h-149z" />
    <glyph glyph-name="afii08941#0" unicode="&#x20a4;" horiz-adv-x="572" 
d="M344 724q57 0 103 -11.5t85 -28.5l-45 -112q-38 14 -70 22.5t-66 8.5q-35 0 -55.5 -18.5t-20.5 -65.5v-55h175v-86h-175v-56h175v-87h-176q0 -26 -16 -57t-57 -51h351v-127h-512v121q48 17 68 47.5t20 66.5h-87v87h87v56h-87v86h87v56q0 74 28 118.5t77 65t111 20.5z" />
    <glyph glyph-name="peseta#0" unicode="&#x20a7;" horiz-adv-x="892" 
d="M272 714q141 0 206 -59.5t65 -163.5q0 -62 -26.5 -116.5t-89.5 -87.5t-170 -33h-26v-254h-141v714h182zM272 590h-41v-212h32q68 0 102.5 25.5t34.5 82.5q0 53 -31 78.5t-97 25.5zM725 529v-116h133v-102h-133v-150q0 -29 17.5 -45.5t42.5 -16.5q23 0 41.5 5t37.5 12
v-101q-20 -10 -50 -17.5t-65 -7.5q-70 0 -111.5 36t-41.5 130v155h-71v53l82 50l43 115h75z" />
    <glyph glyph-name="Euro#0" unicode="&#x20ac;" horiz-adv-x="572" 
d="M392 719q50 0 91.5 -10t80.5 -30l-48 -113q-34 15 -63 23.5t-61 8.5q-59 0 -98 -34.5t-50 -99.5h197v-86h-204q0 -4 -0.5 -10.5t-0.5 -15.5v-14.5t1 -15.5h173v-87h-165q24 -119 157 -119q38 0 71.5 7.5t62.5 20.5v-125q-28 -14 -62.5 -21.5t-80.5 -7.5q-117 0 -195 63.5
t-99 181.5h-67v87h58q-2 14 -2 30v15t1 11h-57v86h65q13 80 53 137t102 87.5t140 30.5z" />
    <glyph glyph-name="uni2113#0" unicode="&#x2113;" horiz-adv-x="520" 
d="M313 93q29 0 48 24.5t22 73.5h101q-4 -94 -44.5 -147t-141.5 -53q-87 0 -138 49.5t-51 147.5v62q-19 -5 -41.5 -11t-47.5 -13v96q24 6 46.5 12.5t42.5 13.5v201q0 93 48 133.5t140 40.5q80 0 126 -42t46 -116q0 -97 -55.5 -158t-161.5 -110v-114q0 -40 14 -65t47 -25z
M341 562q0 32 -10.5 50t-33.5 18q-26 0 -35.5 -18.5t-9.5 -49.5v-160q47 20 68 63.5t21 96.5z" />
    <glyph glyph-name="uni2116#0" unicode="&#x2116;" horiz-adv-x="1028" 
d="M66 0v714h161l247 -508h9q-2 24 -5 59t-5 71t-2 67v311h130v-714h-160l-249 511h-7q3 -28 5.5 -65t4.5 -74t2 -65v-307h-131zM824 134q-72 0 -118.5 46.5t-46.5 131.5t45 131t122 46q71 0 118 -46t47 -131t-45 -131.5t-122 -46.5zM825 214q66 0 66 98q0 97 -66 97
q-35 0 -51 -24t-16 -73t16 -73.5t51 -24.5zM669 0v92h312v-92h-312z" />
    <glyph glyph-name="trademark#0" unicode="&#x2122;" horiz-adv-x="773" 
d="M325 362v352h94l94 -271l97 271h91v-352h-64v204q0 8 1 31.5t2 35.5h-4l-101 -271h-53l-96 271h-4q1 -16 2 -36t1 -26v-209h-60zM118 362v298h-101v54h266v-54h-102v-298h-63z" />
    <glyph glyph-name="uni2126#0" unicode="&#x2126;" horiz-adv-x="786" 
d="M393 599q-85 0 -134.5 -52t-49.5 -153q0 -86 28 -151.5t102 -106.5v-136h-312v127h181q-70 43 -112.5 121t-42.5 178q0 91 41.5 158t118 104t180.5 37t180.5 -37t118 -104.5t41.5 -158.5q0 -100 -42.5 -177t-114.5 -121h183v-127h-314v136q75 39 103.5 106.5t28.5 152.5
q0 100 -49 152t-135 52z" />
    <glyph glyph-name="estimated#0" unicode="&#x212e;" horiz-adv-x="619" 
d="M309 -17q-84 0 -142 39t-87.5 102t-29.5 135t23 124t60.5 86t83.5 50t92 16q74 0 132.5 -33.5t92.5 -95.5t34 -147h-404v-174q22 -23 61 -41.5t84 -18.5q73 0 116 30t77 84l35 -20q-24 -37 -53 -68t-71 -49.5t-104 -18.5zM455 301v135q-19 20 -57 39t-90 19
q-49 0 -85 -17t-59 -40v-136h291z" />
    <glyph glyph-name="oneeighth#0" unicode="&#x215b;" horiz-adv-x="888" 
d="M144 0l396 714h117l-396 -714h-117zM151 286v218q0 13 0.5 34t1.5 40.5t2 26.5q-6 -8 -17.5 -19.5t-19.5 -18.5l-38 -30l-53 62l147 115h93v-428h-116zM668 -10q-82 0 -125 35.5t-43 91.5q0 41 23 65.5t54 40.5q-26 19 -44 43.5t-18 61.5q0 36 21 60.5t55.5 37t76.5 12.5
q63 0 107 -27.5t44 -82.5q0 -37 -20.5 -60.5t-49.5 -40.5q33 -18 59.5 -42t26.5 -65q0 -56 -46 -93t-121 -37zM668 269q19 10 31 22t12 33q0 14 -10.5 25.5t-33.5 11.5q-21 0 -32 -11.5t-11 -25.5q0 -20 12.5 -32t31.5 -23zM666 67q29 0 43.5 14t14.5 36q0 20 -15.5 34.5
t-43.5 24.5l-6 2q-23 -10 -36 -24.5t-13 -36.5t14 -36t42 -14z" />
    <glyph glyph-name="threeeighths#0" unicode="&#x215c;" horiz-adv-x="888" 
d="M162 278q-71 0 -133 34v93q32 -19 64.5 -31.5t67.5 -12.5q70 0 70 52q0 20 -17 36t-64 16h-55v78h45q51 0 65.5 16.5t14.5 36.5q0 19 -12 31t-37 12q-23 0 -43.5 -9t-48.5 -29l-49 69q30 23 67 38t87 15q61 0 101 -30.5t40 -82.5q0 -34 -19.5 -58.5t-63.5 -38.5v-6
q50 -10 73.5 -38.5t23.5 -63.5q0 -59 -43 -93t-134 -34zM179 0l396 714h117l-396 -714h-117zM686 -10q-82 0 -125 35.5t-43 91.5q0 41 23 65.5t54 40.5q-26 19 -44 43.5t-18 61.5q0 36 21 60.5t55.5 37t76.5 12.5q63 0 107 -27.5t44 -82.5q0 -37 -20.5 -60.5t-49.5 -40.5
q33 -18 59.5 -42t26.5 -65q0 -56 -46 -93t-121 -37zM686 269q19 10 31 22t12 33q0 14 -10.5 25.5t-33.5 11.5q-21 0 -32 -11.5t-11 -25.5q0 -20 12.5 -32t31.5 -23zM684 67q29 0 43.5 14t14.5 36q0 20 -15.5 34.5t-43.5 24.5l-6 2q-23 -10 -36 -24.5t-13 -36.5t14 -36
t42 -14z" />
    <glyph glyph-name="fiveeighths#0" unicode="&#x215d;" horiz-adv-x="888" 
d="M186 0l396 714h117l-396 -714h-117zM173 278q-34 0 -68 6t-58 19v94q24 -16 57 -26t59 -10q38 0 61 15t23 49q0 62 -82 62q-12 0 -29 -2.5t-29 -6.5l-53 21l18 215h254v-90h-174l-8 -66q11 2 25 3t31 1q65 0 110 -34.5t45 -100.5q0 -70 -46.5 -109.5t-135.5 -39.5z
M695 -11q-82 0 -125 35.5t-43 91.5q0 41 23 65.5t54 40.5q-26 19 -44 43.5t-18 61.5q0 36 21 60.5t55.5 37t76.5 12.5q63 0 107 -27.5t44 -82.5q0 -37 -20.5 -60.5t-49.5 -40.5q33 -18 59.5 -42t26.5 -65q0 -56 -46 -93t-121 -37zM695 268q19 10 31 22t12 33
q0 14 -10.5 25.5t-33.5 11.5q-21 0 -32 -11.5t-11 -25.5q0 -20 12.5 -32t31.5 -23zM693 66q29 0 43.5 14t14.5 36q0 20 -15.5 34.5t-43.5 24.5l-6 2q-23 -10 -36 -24.5t-13 -36.5t14 -36t42 -14z" />
    <glyph glyph-name="seveneighths#0" unicode="&#x215e;" horiz-adv-x="888" 
d="M145 0l396 714h117l-396 -714h-117zM75 286l166 338h-212v90h326v-73l-157 -355h-123zM670 -10q-82 0 -125 35.5t-43 91.5q0 41 23 65.5t54 40.5q-26 19 -44 43.5t-18 61.5q0 36 21 60.5t55.5 37t76.5 12.5q63 0 107 -27.5t44 -82.5q0 -37 -20.5 -60.5t-49.5 -40.5
q33 -18 59.5 -42t26.5 -65q0 -56 -46 -93t-121 -37zM670 269q19 10 31 22t12 33q0 14 -10.5 25.5t-33.5 11.5q-21 0 -32 -11.5t-11 -25.5q0 -20 12.5 -32t31.5 -23zM668 67q29 0 43.5 14t14.5 36q0 20 -15.5 34.5t-43.5 24.5l-6 2q-23 -10 -36 -24.5t-13 -36.5t14 -36
t42 -14z" />
    <glyph glyph-name="cyrillicbreve#0" horiz-adv-x="577" 
d="M525 781q-6 -52 -29.5 -91.5t-74.5 -61.5t-137 -22q-88 0 -137.5 21.5t-70.5 60.5t-25 93h133q5 -55 28 -73t75 -18q43 0 70.5 19.5t32.5 71.5h135z" />
    <glyph glyph-name="caroncommaaccent#0" horiz-adv-x="500" 
d="M339 760v-10q-15 -33 -35 -71.5t-46 -78.5h-87v13q8 29 17 72t13 75h138z" />
    <glyph glyph-name="uni0326#0" unicode="&#x326;" 
d="M84 -61v-10q-15 -33 -35 -71.5t-46 -78.5h-87v13q8 29 17 72t13 75h138z" />
    <glyph glyph-name="commaaccentrotate#0" horiz-adv-x="500" 
d="M331 766v-13q-8 -29 -17 -72t-13 -75h-138v10q15 33 35.5 71.5t45.5 78.5h87z" />
    <glyph glyph-name="uni2074#0" unicode="&#x2074;" horiz-adv-x="379" 
d="M370 490h-61v-74h-116v74h-187v75l188 282h115v-275h61v-82zM193 572v80q0 42 3 90q-5 -13 -17 -38t-21 -39l-62 -93h97z" />
    <glyph glyph-name="uni2075#0" unicode="&#x2075;" horiz-adv-x="379" 
d="M320 844v-90h-174l-8 -66q11 2 25 3t31 1q65 0 110 -34.5t45 -100.5q0 -70 -46.5 -109.5t-135.5 -39.5q-34 0 -68 6t-58 19v94q24 -16 57 -26t59 -10q38 0 61 15t23 49q0 62 -82 62q-12 0 -29 -2.5t-29 -6.5l-53 21l18 215h254z" />
    <glyph glyph-name="uni2077#0" unicode="&#x2077;" horiz-adv-x="379" 
d="M75 416l166 338h-212v90h326v-73l-157 -355h-123z" />
    <glyph glyph-name="uni2078#0" unicode="&#x2078;" horiz-adv-x="379" 
d="M190 854q63 0 107 -27.5t44 -82.5q0 -37 -20.5 -60.5t-49.5 -40.5q33 -18 59.5 -42t26.5 -65q0 -56 -46 -93t-121 -37q-82 0 -125 35.5t-43 91.5q0 41 23 65.5t54 40.5q-26 19 -44 43.5t-18 61.5q0 36 21 60.5t55.5 37t76.5 12.5zM189 777q-21 0 -32 -11.5t-11 -25.5
q0 -20 12.5 -32t31.5 -23q19 10 31 22t12 33q0 14 -10.5 25.5t-33.5 11.5zM181 594q-23 -10 -36 -24.5t-13 -36.5t14 -36t42 -14q29 0 43.5 14t14.5 36q0 20 -15.5 34.5t-43.5 24.5z" />
    <glyph glyph-name="uni01F0#0" unicode="&#x1f0;" horiz-adv-x="305" 
d="M34 -240q-25 0 -52.5 3.5t-45.5 8.5v117q18 -4 34 -6.5t36 -2.5q30 0 51 17t21 66v583h149v-605q0 -50 -19 -91t-61.5 -65.5t-112.5 -24.5zM68 606q-14 23 -36.5 50t-46.5 53t-42 44v13h99q26 -16 56 -37.5t56 -48.5q26 27 57 48.5t57 37.5h99v-13q-18 -18 -42 -44
t-46.5 -53t-36.5 -50h-174z" />
    <glyph glyph-name="uni02BC#0" unicode="&#x2bc;" horiz-adv-x="217" 
d="M198 714l7 -11q-13 -53 -37 -116t-49 -118h-107q14 59 28 126t21 119h137z" />
    <glyph glyph-name="uni1E3E#0" unicode="&#x1e3e;" horiz-adv-x="943" 
d="M392 0l-172 560h-4l3 -60t4 -85.5t2 -82.5v-332h-135v714h206l169 -546h3l179 546h206v-714h-141v338q0 34 1.5 78t3 83.5t2.5 59.5h-4l-184 -559h-139zM663 934v-10q-14 -14 -37 -34t-49.5 -42t-52 -41.5t-44.5 -32.5h-99v13q16 18 37.5 44t42 53.5t35.5 49.5h167z" />
    <glyph glyph-name="uni1E3F#0" unicode="&#x1e3f;" horiz-adv-x="982" 
d="M719 556q93 0 140.5 -47.5t47.5 -152.5v-356h-149v319q0 118 -82 118q-59 0 -84 -42t-25 -121v-274h-149v319q0 118 -82 118q-62 0 -85.5 -46.5t-23.5 -133.5v-257h-149v546h114l20 -70h8q25 42 68.5 61t90.5 19q60 0 102 -19.5t64 -60.5h13q25 42 69.5 61t91.5 19z
M693 766v-10q-14 -14 -37 -34t-49.5 -42t-52 -41.5t-44.5 -32.5h-99v13q16 18 37.5 44t42 53.5t35.5 49.5h167z" />
    <glyph glyph-name="uni1E00#0" unicode="&#x1e00;" horiz-adv-x="690" 
d="M527 0l-52 170h-260l-52 -170h-163l252 717h185l253 -717h-163zM439 297l-52 166q-5 17 -13 43t-16 53t-13 47q-5 -20 -13.5 -49.5t-16 -56t-11.5 -37.5l-51 -166h186zM345 -293q-54 0 -87.5 31t-33.5 85t33.5 85t87.5 31q52 0 88 -31t36 -84q0 -55 -35.5 -86t-88.5 -31z
M345 -224q20 0 33.5 12.5t13.5 34.5t-13.5 34.5t-33.5 12.5t-33.5 -12.5t-13.5 -34.5t12 -34.5t35 -12.5z" />
    <glyph glyph-name="uni1E01#0" unicode="&#x1e01;" horiz-adv-x="604" 
d="M302 557q110 0 168.5 -47.5t58.5 -145.5v-364h-104l-29 74h-4q-35 -44 -74 -64t-107 -20q-73 0 -121 42.5t-48 130.5q0 87 61 128.5t183 45.5l95 3v24q0 43 -22.5 63t-62.5 20t-78 -11.5t-76 -28.5l-49 101q44 23 97.5 36t111.5 13zM381 253l-58 -2q-72 -2 -100 -26
t-28 -63q0 -34 20 -48.5t52 -14.5q48 0 81 28.5t33 80.5v45zM289 -293q-54 0 -87.5 31t-33.5 85t33.5 85t87.5 31q52 0 88 -31t36 -84q0 -55 -35.5 -86t-88.5 -31zM289 -224q20 0 33.5 12.5t13.5 34.5t-13.5 34.5t-33.5 12.5t-33.5 -12.5t-13.5 -34.5t12 -34.5t35 -12.5z
" />
    <glyph glyph-name="uni02F3#0" horiz-adv-x="333" 
d="M164 -293q-54 0 -87.5 31t-33.5 85t33.5 85t87.5 31q52 0 88 -31t36 -84q0 -55 -35.5 -86t-88.5 -31zM164 -224q20 0 33.5 12.5t13.5 34.5t-13.5 34.5t-33.5 12.5t-33.5 -12.5t-13.5 -34.5t12 -34.5t35 -12.5z" />
    <glyph glyph-name="Ohorn#0" unicode="&#x1a0;" horiz-adv-x="825" 
d="M738 358q0 -111 -36.5 -193.5t-111.5 -128.5t-192 -46q-116 0 -191.5 46t-112 129t-36.5 194q0 110 36.5 192.5t112.5 128t193 45.5q86 0 150.5 -26t105.5 -73q23 15 34 50.5t11 83.5h147l7 -11q-16 -82 -50 -132.5t-97 -76.5q30 -78 30 -182zM217 358q0 -112 43 -176.5
t138 -64.5q97 0 139 64.5t42 176.5q0 113 -42 177t-138 64t-139 -64t-43 -177z" />
    <glyph glyph-name="ohorn#0" unicode="&#x1a1;" horiz-adv-x="679" 
d="M574 274q0 -136 -71.5 -210t-194.5 -74q-76 0 -135.5 33t-93.5 96.5t-34 154.5q0 136 71 209t195 73q55 0 104 -17t83 -50q40 12 56.5 49.5t16.5 89.5h147l7 -11q-10 -48 -27.5 -89.5t-52.5 -71.5t-96 -46q12 -29 18.5 -63t6.5 -73zM197 274q0 -81 26.5 -122.5
t86.5 -41.5q59 0 85.5 41.5t26.5 122.5t-26.5 121.5t-86.5 40.5q-59 0 -85.5 -40.5t-26.5 -121.5z" />
    <glyph glyph-name="Uhorn#0" unicode="&#x1af;" horiz-adv-x="885" 
d="M671 714v-92q36 13 53 49.5t17 88.5h147l7 -11q-11 -54 -32.5 -99t-66 -75.5t-125.5 -42.5v-280q0 -74 -32.5 -133.5t-98 -94t-165.5 -34.5q-142 0 -216 72.5t-74 191.5v460h151v-449q0 -79 36 -113.5t107 -34.5q74 0 107.5 37.5t33.5 111.5v448h151z" />
    <glyph glyph-name="uhorn#0" unicode="&#x1b0;" horiz-adv-x="760" 
d="M799 628l7 -11q-11 -54 -32.5 -99.5t-67 -76.5t-127.5 -42v-399h-114l-20 70h-9q-26 -42 -71.5 -61t-95.5 -19q-88 0 -141 47.5t-53 152.5v356h149v-319q0 -58 21 -88t67 -30q68 0 93 46.5t25 133.5v257h149v-57q38 12 55.5 49.5t17.5 89.5h147z" />
    <glyph glyph-name="hook#0" 
d="M-172 726q0 -76 -79 -96l-5 -35h-85l-11 72q37 6 50 18.5t13 30.5q0 16 -10 24t-27 8q-19 0 -35.5 -3t-32.5 -8v82q14 5 38 8t48 3q68 0 102 -27t34 -77z" />
    <glyph glyph-name="uni0400#0" unicode="&#x400;" horiz-adv-x="560" 
d="M501 0h-411v714h411v-124h-260v-157h242v-124h-242v-184h260v-125zM277 934q15 -22 35.5 -49.5t42 -53.5t37.5 -44v-13h-99q-19 13 -44.5 32.5t-52 41.5t-49.5 42t-37 34v10h167z" />
    <glyph glyph-name="uni040D#0" unicode="&#x40d;" horiz-adv-x="823" 
d="M90 714h136v-345q0 -25 -1 -56t-2 -60.5t-2 -51t-2 -29.5h3l330 542h181v-714h-135v343q0 27 1 59.5t2.5 62.5t3 52.5t2.5 29.5h-4l-331 -547h-182v714zM400 934q15 -22 35.5 -49.5t42 -53.5t37.5 -44v-13h-99q-19 13 -44.5 32.5t-52 41.5t-49.5 42t-37 34v10h167z" />
    <glyph glyph-name="uni0450#0" unicode="&#x450;" horiz-adv-x="591" 
d="M303 556q113 0 179 -64.5t66 -183.5v-72h-352q2 -63 37.5 -99t98.5 -36q53 0 96 10.5t89 32.5v-115q-40 -20 -84.5 -29.5t-107.5 -9.5q-82 0 -145 30.5t-99 92.5t-36 156q0 95 32.5 159t90.5 96t135 32zM304 450q-43 0 -71.5 -28t-33.5 -87h209q-1 50 -26 82.5t-78 32.5z
M272 766q15 -22 35.5 -49.5t42 -53.5t37.5 -44v-13h-99q-19 13 -44.5 32.5t-52 41.5t-49.5 42t-37 34v10h167z" />
    <glyph glyph-name="uni045D#0" unicode="&#x45d;" horiz-adv-x="720" 
d="M222 546v-216q0 -17 -1.5 -42t-3 -51t-3.5 -46t-3 -28l252 383h179v-546h-144v218q0 27 2 59.5t4.5 61t3.5 43.5l-251 -382h-179v546h144zM336 766q15 -22 35.5 -49.5t42 -53.5t37.5 -44v-13h-99q-19 13 -44.5 32.5t-52 41.5t-49.5 42t-37 34v10h167z" />
    <glyph glyph-name="uni0460#0" unicode="&#x460;" horiz-adv-x="953" 
d="M234 0q-43 66 -81.5 150t-68 178.5t-46.5 192.5t-17 192h158q6 -116 25 -220.5t45 -191t53 -148.5h5q5 38 17 84t25 84l60 184q-10 53 -15.5 102t-7.5 107h158q4 -100 21.5 -202.5t45.5 -197t62 -169.5h6q47 110 71.5 246t24.5 322h157q0 -211 -45.5 -386.5
t-142.5 -326.5h-145q-40 65 -76 142.5t-59 145.5l-83 -288h-147z" />
    <glyph glyph-name="uni0461#0" unicode="&#x461;" horiz-adv-x="885" 
d="M846 546q-4 -96 -23 -183.5t-57 -175.5t-98 -187h-133q-26 48 -54.5 100.5t-46.5 101.5l-103 -202h-132q-33 51 -65 115.5t-58 136.5t-41.5 147t-15.5 147h150q4 -89 20 -168.5t37 -144.5t42 -112h4q7 26 24 55t31 57l58 114q-13 43 -19.5 96.5t-7.5 102.5h150
q4 -82 17 -153t31.5 -137t39.5 -135h4q41 84 64.5 187.5t31.5 237.5h150z" />
    <glyph glyph-name="uni0462#0" unicode="&#x462;" horiz-adv-x="673" 
d="M125 0v508h-125v112h125v94h151v-94h184v-112h-184v-68h60q101 0 165.5 -28t95.5 -77t31 -112q0 -106 -70.5 -164.5t-224.5 -58.5h-208zM276 124h51q69 0 108.5 22t39.5 77q0 57 -43 75t-117 18h-39v-192z" />
    <glyph glyph-name="uni0463#0" unicode="&#x463;" horiz-adv-x="662" 
d="M275 644v-98h175v-112h-175v-99h105q126 0 186.5 -40t60.5 -121q0 -79 -56 -126.5t-185 -47.5h-260v434h-126v112h126v98h149zM377 232h-102v-129h104q44 0 71.5 16t27.5 53q0 60 -101 60z" />
    <glyph glyph-name="uni0464#0" unicode="&#x464;" horiz-adv-x="950" 
d="M681 -10q-108 0 -181 39.5t-111.5 111t-46.5 167.5h-101v-308h-151v714h151v-280h105q14 87 58.5 152t118 101.5t173.5 36.5q57 0 113.5 -13.5t105.5 -36.5l-49 -123q-43 19 -87.5 33t-86.5 14q-80 0 -130.5 -42.5t-60.5 -121.5h299v-126h-300q4 -55 27 -98.5t64 -68.5
t100 -25q47 0 94.5 10t102.5 28v-127q-50 -19 -98.5 -28t-108.5 -9z" />
    <glyph glyph-name="uni0465#0" unicode="&#x465;" horiz-adv-x="800" 
d="M596 -10q-113 0 -180.5 57.5t-80.5 177.5h-108v-225h-149v546h149v-210h108q9 83 43.5 131.5t88 68.5t119.5 20q53 0 98.5 -12.5t76.5 -26.5l-42 -102q-27 12 -59.5 21.5t-67.5 9.5q-49 0 -75 -28.5t-30 -81.5h206v-111h-206q5 -67 35.5 -95.5t81.5 -28.5q44 0 84 11.5
t76 27.5v-116q-35 -18 -75.5 -26t-92.5 -8z" />
    <glyph glyph-name="uni0466#0" unicode="&#x466;" horiz-adv-x="730" 
d="M457 717l273 -717h-147l-102 308h-49v-308h-133v308h-50l-101 -308h-148l272 717h185zM365 626q-2 -10 -9.5 -31t-17 -45t-19 -46.5t-14.5 -35.5l-18 -44h153l-17 44q-5 14 -13.5 36t-17.5 46t-16.5 44.5t-10.5 31.5z" />
    <glyph glyph-name="uni0467#0" unicode="&#x467;" horiz-adv-x="640" 
d="M409 546l231 -546h-143l-74 206h-38v-206h-129v206h-39l-74 -206h-143l230 546h179zM320 460h-4q-5 -16 -14 -40t-17.5 -44.5t-11.5 -27.5l-18 -41h131l-18 39q-4 7 -13.5 28.5t-19.5 45.5t-15 40z" />
    <glyph glyph-name="uni0468#0" unicode="&#x468;" horiz-adv-x="1005" 
d="M732 717l273 -717h-147l-102 308h-49v-308h-133v308h-50l-101 -308h-148l117 308h-151v-308h-151v714h151v-280h199l107 283h185zM640 626q-2 -10 -9.5 -31t-17 -45t-19 -46.5t-14.5 -35.5l-18 -44h153l-17 44q-5 14 -13.5 36t-17.5 46t-16.5 44.5t-10.5 31.5z" />
    <glyph glyph-name="uni0469#0" unicode="&#x469;" horiz-adv-x="902" 
d="M671 546l231 -546h-143l-80 224h-32v-224h-129v224h-32l-81 -224h-143l95 225h-150v-225h-129v546h129v-210h196l89 210h179zM583 460h-4q-5 -16 -14.5 -40t-17.5 -45.5t-11 -26.5l-10 -23h115l-11 23q-4 8 -13.5 29t-19 44.5t-14.5 38.5z" />
    <glyph glyph-name="uni046A#0" unicode="&#x46a;" horiz-adv-x="804" 
d="M721 714v-68l-187 -229q65 -17 106.5 -63t69.5 -133l74 -221h-152l-60 188q-17 54 -37.5 81t-56.5 36v-305h-150v305q-37 -9 -58 -35.5t-38 -81.5l-60 -188h-152l74 221q29 87 70 133t105 63l-183 229v68h635zM526 588h-247l123 -153z" />
    <glyph glyph-name="uni046B#0" unicode="&#x46b;" horiz-adv-x="623" 
d="M576 546v-52l-143 -179q44 -16 73.5 -51t49.5 -95l57 -169h-126l-46 144q-13 38 -26.5 54.5t-36.5 20.5v-219h-129v220q-26 -4 -40.5 -20.5t-26.5 -55.5l-46 -144h-126l57 169q20 61 50.5 96t74.5 51l-141 178v52h525zM400 445h-175l87 -110z" />
    <glyph glyph-name="uni046C#0" unicode="&#x46c;" horiz-adv-x="1073" 
d="M990 714v-68l-187 -229q65 -17 106.5 -63t69.5 -133l74 -221h-152l-60 188q-17 54 -37.5 81t-56.5 36v-305h-150v305q-37 -9 -58 -35.5t-38 -81.5l-60 -188h-152l74 221q8 24 19.5 48t26.5 39h-168v-308h-151v714h151v-280h283l-169 212v68h635zM795 588h-247l123 -153z
" />
    <glyph glyph-name="uni046D#0" unicode="&#x46d;" horiz-adv-x="880" 
d="M833 546v-52l-143 -179q44 -16 73.5 -51t49.5 -95l57 -169h-126l-46 144q-12 38 -26 54.5t-37 20.5v-219h-129v220q-26 -4 -40.5 -20.5t-26.5 -55.5l-46 -144h-126l57 169q5 16 12.5 31.5t17.5 24.5h-147v-225h-129v546h129v-210h226l-125 158v52h525zM657 445h-175
l87 -110z" />
    <glyph glyph-name="uni046E#0" unicode="&#x46e;" horiz-adv-x="632" 
d="M470 867q23 0 38 -3t22 -5v-74q-14 6 -43 6q-24 0 -48 -21t-44 -54q82 -16 127 -61.5t45 -107.5q0 -72 -47 -116t-120 -55v-3q90 -10 139.5 -54.5t49.5 -115.5q0 -94 -79 -153.5t-230 -59.5q-49 0 -73 -5t-32 -15t-8 -27q0 -19 15.5 -31t55.5 -12q56 0 94 2.5t75 2.5
t56.5 -5.5t26.5 -14.5v-112q-10 10 -33.5 15t-44.5 5q-33 0 -88.5 -2t-116.5 -2q-94 0 -140.5 45.5t-46.5 110.5q0 48 21 84t73 57t146 23t136.5 26t42.5 79q0 51 -62 74.5t-167 23.5h-67v118h60q85 0 132 11t66 32t19 50q0 37 -32.5 58.5t-97.5 21.5q-55 0 -103.5 -16
t-90.5 -42l-66 101q41 26 85.5 45t102.5 27q-25 31 -57.5 66t-53.5 56v13h102q23 -16 50 -42.5t52 -52.5q19 23 41 48.5t51 43t67 17.5z" />
    <glyph glyph-name="uni046F#0" unicode="&#x46f;" horiz-adv-x="555" 
d="M435 674q23 0 38 -3t22 -5v-74q-6 2 -18 4t-25 2q-20 0 -40 -14.5t-37 -39.5q54 -14 90.5 -47t36.5 -86q0 -49 -27.5 -78t-74.5 -42v-5q32 -8 59 -22.5t42.5 -39t15.5 -65.5q0 -45 -26 -83.5t-86 -62t-163 -23.5q-42 0 -63.5 -5.5t-29 -15.5t-7.5 -23q0 -25 18.5 -35.5
t61.5 -10.5q36 0 58.5 1.5t41 2.5t42.5 1q36 0 55 -5.5t26 -14.5v-112q-10 10 -33 15t-43 5q-33 0 -77 -2t-104 -2q-93 0 -133 41t-40 109q0 51 21 88t71 57.5t136 20.5q66 0 97.5 16.5t31.5 46.5q0 65 -155 65h-58v103h55q74 0 114.5 12t40.5 45q0 26 -26 39.5t-85 13.5
q-39 0 -85 -9t-87 -26l-44 104q28 11 58.5 19.5t65.5 13.5q-21 26 -45.5 53t-42.5 46v13h96q22 -16 48 -41t54 -54q19 23 41 48.5t51 43t67 17.5z" />
    <glyph glyph-name="uni0470#0" unicode="&#x470;" horiz-adv-x="876" 
d="M823 714v-234q0 -88 -29.5 -147.5t-99 -89.5t-188.5 -30v-213h-136v213q-122 0 -191 30.5t-97.5 90t-28.5 144.5v236h142v-234q0 -58 19 -89.5t58 -43.5t98 -12v379h136v-379q54 0 93.5 11.5t60.5 42.5t21 89v236h142z" />
    <glyph glyph-name="uni0471#0" unicode="&#x471;" horiz-adv-x="837" 
d="M492 759v-653q80 8 117.5 45t37.5 131q0 66 -11 130t-28 134h138q38 -137 38 -265q0 -102 -39 -164.5t-105.5 -91.5t-147.5 -34v-231h-138v231q-83 3 -147 31t-100.5 88.5t-36.5 160.5v275h142v-279q0 -85 31.5 -120.5t110.5 -41.5v654h138z" />
    <glyph glyph-name="uni0472#0" unicode="&#x472;" horiz-adv-x="796" 
d="M738 358q0 -111 -36.5 -193.5t-111.5 -128.5t-192 -46q-116 0 -191.5 46t-112 129t-36.5 194q0 110 36.5 192.5t112 128t192.5 45.5q116 0 191 -45.5t111.5 -128t36.5 -193.5zM399 599q-80 0 -124 -45t-57 -125h359q-12 80 -55 125t-123 45zM398 117q84 0 128 49t53 137
h-363q10 -88 54.5 -137t127.5 -49z" />
    <glyph glyph-name="uni0473#0" unicode="&#x473;" horiz-adv-x="619" 
d="M574 274q0 -136 -71.5 -210t-194.5 -74q-76 0 -135.5 33t-93.5 96.5t-34 154.5q0 136 71 209t195 73q77 0 136 -33t93 -95.5t34 -153.5zM309 436q-95 0 -110 -110h220q-14 110 -110 110zM310 110q95 0 109 113h-220q15 -113 111 -113z" />
    <glyph glyph-name="uni0474#0" unicode="&#x474;" horiz-adv-x="717" 
d="M657 594q-28 0 -43 -24t-31 -68l-176 -502h-165l-242 714h153l141 -444q11 -44 18 -76t13 -70q5 38 13.5 72t21.5 74l83 254q20 63 41.5 106.5t52 66.5t78.5 23q32 0 55.5 -6t35.5 -13v-118q-10 5 -22.5 8t-26.5 3z" />
    <glyph glyph-name="uni0475#0" unicode="&#x475;" horiz-adv-x="605" 
d="M530 550q12 0 33 -3t39 -11v-115q-12 5 -22 7t-18 2q-22 0 -33 -15.5t-18 -32.5l-150 -382h-152l-209 546h156l100 -306q10 -31 18 -62t10 -56h2q3 25 10 54.5t18 60.5l60 168q18 50 36 82.5t45.5 47.5t74.5 15z" />
    <glyph glyph-name="uni0476#0" unicode="&#x476;" horiz-adv-x="717" 
d="M657 594q-28 0 -43 -24t-31 -68l-176 -502h-165l-242 714h153l141 -444q11 -44 18 -76t13 -70q5 38 13.5 72t21.5 74l83 254q20 63 41.5 106.5t52 66.5t78.5 23q32 0 55.5 -6t35.5 -13v-118q-10 5 -22.5 8t-26.5 3zM405 934q16 -34 40 -76t45 -71v-13h-79
q-17 14 -39.5 33.5t-46 41.5t-41.5 42t-26 33v10h147zM211 934q16 -34 40 -76t45 -71v-13h-79q-17 14 -39.5 33.5t-46 41.5t-41.5 42t-26 33v10h147z" />
    <glyph glyph-name="uni0477#0" unicode="&#x477;" horiz-adv-x="605" 
d="M530 550q12 0 33 -3t39 -11v-115q-12 5 -22 7t-18 2q-22 0 -33 -15.5t-18 -32.5l-150 -382h-152l-209 546h156l100 -306q10 -31 18 -62t10 -56h2q3 25 10 54.5t18 60.5l60 168q18 50 36 82.5t45.5 47.5t74.5 15zM367 766q16 -34 40 -76t45 -71v-13h-79q-17 14 -39.5 33.5
t-46 41.5t-41.5 42t-26 33v10h147zM173 766q16 -34 40 -76t45 -71v-13h-79q-17 14 -39.5 33.5t-46 41.5t-41.5 42t-26 33v10h147z" />
    <glyph glyph-name="uni0478#0" unicode="&#x478;" horiz-adv-x="1319" 
d="M698 358q0 -111 -32 -193.5t-102.5 -128.5t-185.5 -46t-185.5 46t-102.5 129t-32 194q0 110 32 192.5t103 128t186 45.5t185 -45.5t102 -128t32 -193.5zM214 358q0 -75 15 -129t51 -83t98 -29q64 0 99.5 29t50 83t14.5 129t-14.5 129t-50 83t-98.5 29q-62 0 -98.5 -29
t-51.5 -83t-15 -129zM750 546h163l103 -307q8 -22 12 -45.5t6 -49.5h3q3 26 8.5 49.5t12.5 45.5l101 307h160l-231 -616q-31 -85 -90.5 -127.5t-137.5 -42.5q-25 0 -43.5 2.5t-32.5 5.5v118q11 -2 26.5 -4t32.5 -2q47 0 74.5 28.5t40.5 68.5l9 27z" />
    <glyph glyph-name="uni0479#0" unicode="&#x479;" horiz-adv-x="1168" 
d="M574 274q0 -136 -71.5 -210t-194.5 -74q-76 0 -135.5 33t-93.5 96.5t-34 154.5q0 136 71 209t195 73q77 0 136 -33t93 -95.5t34 -153.5zM197 274q0 -81 26.5 -122.5t86.5 -41.5q59 0 85.5 41.5t26.5 122.5t-26.5 121.5t-86.5 40.5q-59 0 -85.5 -40.5t-26.5 -121.5z
M599 546h163l103 -307q8 -22 12 -45.5t6 -49.5h3q3 26 8.5 49.5t12.5 45.5l101 307h160l-231 -616q-31 -85 -90.5 -127.5t-137.5 -42.5q-25 0 -43.5 2.5t-32.5 5.5v118q11 -2 26.5 -4t32.5 -2q47 0 74.5 28.5t40.5 68.5l9 27z" />
    <glyph glyph-name="uni047A#0" unicode="&#x47a;" horiz-adv-x="836" 
d="M419 -61q-57 0 -72 56q-99 12 -163 60.5t-95 126t-31 177.5q0 149 70.5 245.5t219.5 115.5q9 32 26.5 43t44.5 11q26 0 43.5 -11t26.5 -43q148 -19 218.5 -116t70.5 -246q0 -148 -70 -245.5t-217 -117.5q-17 -56 -72 -56zM351 125q11 20 28 27.5t40 7.5q22 0 39 -7.5
t28 -27.5q71 19 103.5 79.5t32.5 153.5q0 92 -32 152.5t-102 79.5q-10 -19 -28 -28t-41 -9q-49 0 -70 37q-70 -19 -102.5 -79.5t-32.5 -152.5q0 -93 33.5 -153.5t103.5 -79.5z" />
    <glyph glyph-name="uni047B#0" unicode="&#x47b;" horiz-adv-x="679" 
d="M634 274q0 -118 -61 -187.5t-168 -86.5q-4 -25 -22 -39.5t-44 -14.5q-58 0 -67 55q-101 17 -164 86t-63 187q0 119 61 188.5t170 85.5q5 23 22 31.5t41 8.5q22 0 39 -8.5t23 -31.5q104 -16 168.5 -85.5t64.5 -188.5zM482 274q0 59 -18 100.5t-57 57.5q-8 -22 -23 -36
t-45 -14q-31 0 -46 14t-23 36q-38 -16 -55.5 -57.5t-17.5 -100.5q0 -61 18.5 -103.5t58.5 -58.5q9 19 23 29.5t42 10.5q27 0 40.5 -11t23.5 -30q41 15 60 58.5t19 104.5z" />
    <glyph glyph-name="uni047C#0" unicode="&#x47c;" horiz-adv-x="1088" 
d="M360 914v24q0 45 12.5 71.5t33 39.5t44.5 16.5t46 3.5q38 0 74.5 -14.5t77.5 -29.5t92 -15h7v-95h-8q-54 0 -91.5 8t-63.5 18.5t-46 18.5t-40 8q-22 0 -33 -12.5t-16 -41.5h-89zM463 730v42q29 8 43 23t14 27q0 9 -9 13.5t-20 8t-20 10.5t-9 20q0 26 19.5 40t53.5 14
q38 0 58.5 -22t20.5 -57q0 -33 -21 -59t-55.5 -42t-74.5 -18zM364 -10q-106 0 -173.5 50t-100 137.5t-32.5 197.5q0 162 71.5 255t204.5 93q39 0 82 -15t72 -38l-53 -105q-17 11 -42 24.5t-54 13.5q-60 0 -96 -57.5t-36 -171.5q0 -118 44.5 -185t132.5 -67q23 0 43.5 9.5
t38.5 24.5v193h151v-193q35 -34 88 -34q89 0 132.5 67t43.5 185q0 114 -36 171.5t-96 57.5q-29 0 -54 -13.5t-42 -24.5l-53 105q29 23 72 38t82 15q134 0 205 -93t71 -255q0 -110 -32.5 -197.5t-100.5 -137.5t-173 -50q-56 0 -99.5 17.5t-81.5 54.5q-37 -37 -80 -54.5
t-99 -17.5z" />
    <glyph glyph-name="uni047D#0" unicode="&#x47d;" horiz-adv-x="958" 
d="M403 915q38 0 74.5 -14.5t77.5 -29.5t92 -15h7v-95h-8q-54 0 -91.5 8t-63.5 18.5t-46 18.5t-40 8q-22 0 -33 -12.5t-16 -41.5h-89v24q0 45 12.5 71.5t33 39.5t44.5 16.5t46 3.5zM442 774q38 0 58.5 -22t20.5 -57q0 -33 -20 -59t-54 -42t-77 -18v42q29 8 43 23t14 27
q0 9 -9 13.5t-20 8t-20 10.5t-9 20q0 26 19.5 40t53.5 14zM313 -10q-122 0 -188.5 67.5t-66.5 212.5q0 100 30 163t84 93t124 30q45 0 76.5 -12t56.5 -29l-58 -104q-20 11 -38.5 18t-36.5 7q-86 0 -86 -165q0 -82 32 -121t87 -39q21 0 40 10t36 38l-1 131h149v-127
q19 -31 39 -41.5t43 -10.5q56 0 84.5 39t28.5 121q0 165 -86 165q-19 0 -37.5 -7t-38.5 -19l-59 105q26 17 58 29t77 12q71 0 124.5 -30t83.5 -93t30 -163q0 -145 -66.5 -212.5t-188.5 -67.5q-55 0 -95.5 21t-70.5 67q-31 -49 -70.5 -68.5t-95.5 -19.5z" />
    <glyph glyph-name="uni047E#0" unicode="&#x47e;" horiz-adv-x="953" 
d="M234 0q-43 66 -81.5 150t-68 178.5t-46.5 192.5t-17 192h158q6 -116 25 -220.5t45 -191t53 -148.5h5q5 38 17 84t25 84l60 184q-10 53 -15.5 102t-7.5 107h158q4 -100 21.5 -202.5t45.5 -197t62 -169.5h6q47 110 71.5 246t24.5 322h157q0 -211 -45.5 -386.5
t-142.5 -326.5h-145q-40 65 -76 142.5t-59 145.5l-83 -288h-147zM689 903v-43l-40 -84h-27l-24 50h-75l-24 -50h-27l-24 50h-75l-24 -50h-27l-39 84v43h406z" />
    <glyph glyph-name="uni047F#0" unicode="&#x47f;" horiz-adv-x="885" 
d="M846 546q-4 -96 -23 -183.5t-57 -175.5t-98 -187h-133q-26 48 -54.5 100.5t-46.5 101.5l-103 -202h-132q-33 51 -65 115.5t-58 136.5t-41.5 147t-15.5 147h150q4 -89 20 -168.5t37 -144.5t42 -112h4q7 26 24 55t31 57l58 114q-13 43 -19.5 96.5t-7.5 102.5h150
q4 -82 17 -153t31.5 -137t39.5 -135h4q41 84 64.5 187.5t31.5 237.5h150zM630 735v-43l-40 -84h-27l-24 50h-75l-24 -50h-27l-24 50h-75l-24 -50h-27l-39 84v43h406z" />
    <glyph glyph-name="uni0480#0" unicode="&#x480;" horiz-adv-x="677" 
d="M418 724q57 0 114.5 -13.5t109.5 -36.5l-49 -123q-44 19 -89.5 33t-89.5 14q-97 0 -148.5 -65t-51.5 -178q0 -114 48 -176.5t154 -62.5q35 0 76.5 5.5t77.5 12.5v-374h-151v230q-124 0 -204 45.5t-118.5 128t-38.5 192.5q0 108 41.5 191t122 130t196.5 47z" />
    <glyph glyph-name="uni0481#0" unicode="&#x481;" horiz-adv-x="524" 
d="M318 556q91 0 174 -39l-43 -113q-37 14 -70.5 23t-64.5 9q-61 0 -89 -41t-28 -124q0 -79 33 -119.5t88 -40.5q42 0 70.5 5.5t54.5 12.5v-369h-149v232q-115 9 -182 75.5t-67 202.5q0 109 34 171.5t95.5 88.5t143.5 26z" />
    <glyph glyph-name="uni0482#0" unicode="&#x482;" horiz-adv-x="609" 
d="M446 630l62 -36l-89 -154l140 -80l-36 -60l-138 80l-98 -169l139 -81l-35 -60l-139 80l-88 -153l-63 36l88 154l-138 80l34 60l140 -80l97 169l-139 80l35 61l139 -80z" />
    <glyph glyph-name="uni0488#0" unicode="&#x488;" horiz-adv-x="989" 
d="M387 601q2 44 27 69.5t75 25.5q48 0 74.5 -26.5t29.5 -68.5h-39q-3 28 -21.5 35.5t-43.5 7.5q-30 0 -46 -7t-19 -36h-37zM670 462q2 44 27 69.5t75 25.5q48 0 74.5 -26.5t29.5 -68.5h-39q-3 28 -21.5 35.5t-43.5 7.5q-30 0 -46 -7t-19 -36h-37zM107 462q2 44 27 69.5
t75 25.5q48 0 74.5 -26.5t29.5 -68.5h-39q-3 28 -21.5 35.5t-43.5 7.5q-30 0 -46 -7t-19 -36h-37zM20 224q2 44 27 69.5t75 25.5q48 0 74.5 -26.5t29.5 -68.5h-39q-3 28 -21.5 35.5t-43.5 7.5q-30 0 -46 -7t-19 -36h-37zM763 224q2 44 27 69.5t75 25.5q48 0 74.5 -26.5
t29.5 -68.5h-39q-3 28 -21.5 35.5t-43.5 7.5q-30 0 -46 -7t-19 -36h-37zM107 -20q2 44 27 69.5t75 25.5q48 0 74.5 -26.5t29.5 -68.5h-39q-3 28 -21.5 35.5t-43.5 7.5q-30 0 -46 -7t-19 -36h-37zM670 -20q2 44 27 69.5t75 25.5q48 0 74.5 -26.5t29.5 -68.5h-39
q-3 28 -21.5 35.5t-43.5 7.5q-30 0 -46 -7t-19 -36h-37zM387 -156q2 44 27 69.5t75 25.5q48 0 74.5 -26.5t29.5 -68.5h-39q-3 28 -21.5 35.5t-43.5 7.5q-30 0 -46 -7t-19 -36h-37z" />
    <glyph glyph-name="uni0489#0" unicode="&#x489;" horiz-adv-x="956" 
d="M532 728q-10 -41 -19.5 -88t-14.5 -83h-68l-5 7q10 38 26.5 82t33.5 82h47zM191 621q23 -36 49 -76t48 -69l-48 -48l-8 1q-19 34 -39 76.5t-35 81.5zM806 579l34 -33q-36 -22 -76 -48.5t-69 -48.5l-48 48l1 8q34 20 76.5 39.5t81.5 34.5zM20 323q41 -10 88 -19.5
t83 -14.5v-68l-7 -5q-37 10 -81.5 26.5t-82.5 33.5v47zM772 323q38 -10 82 -26.5t82 -33.5v-47q-41 10 -88 19.5t-83 14.5v68zM715 90l8 -1q20 -34 39.5 -76.5t34.5 -81.5l-33 -34q-22 36 -48.5 76t-48.5 69zM261 70l48 -48l-1 -8q-34 -19 -76.5 -39t-81.5 -35l-34 33
q36 23 76 49t69 48zM527 -17l5 -7q-10 -37 -26.5 -81.5t-33.5 -82.5h-47q10 41 19.5 88t14.5 83h68z" />
    <glyph glyph-name="uni048A#0" unicode="&#x48a;" horiz-adv-x="916" 
d="M407 771q-88 0 -137.5 21.5t-70.5 60.5t-25 93h133q5 -55 28 -73t75 -18q43 0 70.5 19.5t32.5 71.5h135q-6 -52 -29.5 -91.5t-74.5 -61.5t-137 -22zM641 -208l92 208h-135v343q0 49 3 106t6 98h-4l-331 -547h-182v714h136v-345q0 -46 -1.5 -100t-5.5 -97h3l330 542h181
v-584h163l-87 -338h-168z" />
    <glyph glyph-name="uni048B#0" unicode="&#x48b;" horiz-adv-x="802" 
d="M357 606q-88 0 -137.5 21.5t-70.5 60.5t-25 93h133q5 -51 28 -71t75 -20q43 0 70.5 19.5t32.5 71.5h135q-6 -52 -29.5 -91.5t-74.5 -61.5t-137 -22zM575 -196l67 196h-144v218q0 24 1.5 55.5t4 61t4.5 47.5l-251 -382h-179v546h144v-216q0 -23 -1.5 -54.5t-4 -62
t-5.5 -50.5l252 383h179v-437h146l-71 -305h-142z" />
    <glyph glyph-name="uni048C#0" unicode="&#x48c;" horiz-adv-x="638" 
d="M241 714v-74h146v-124h-146v-76h60q101 0 165.5 -28t95.5 -77t31 -112q0 -106 -70.5 -164.5t-224.5 -58.5h-208v516h-67v124h67v74h151zM280 316h-39v-192h51q69 0 108.5 22t39.5 77q0 57 -43 75t-117 18z" />
    <glyph glyph-name="uni048D#0" unicode="&#x48d;" horiz-adv-x="614" 
d="M227 760v-109h184v-97h-184v-219h105q126 0 186.5 -40t60.5 -121q0 -79 -56 -126.5t-185 -47.5h-260v554h-76v97h76v109h149zM329 232h-102v-129h104q44 0 71.5 16t27.5 53q0 60 -101 60z" />
    <glyph glyph-name="uni048E#0" unicode="&#x48e;" horiz-adv-x="628" 
d="M583 491q0 -57 -21 -107.5t-71 -83.5l43 -61l-74 -55l-56 80q-41 -10 -98 -10h-65v-254h-151v714h228q138 0 201.5 -59.5t63.5 -163.5zM241 378h60h11t11 1l-37 53l75 54l49 -70q20 26 20 70q0 104 -120 104h-69v-212z" />
    <glyph glyph-name="uni048F#0" unicode="&#x48f;" horiz-adv-x="633" 
d="M378 -10q-59 0 -94 21.5t-57 48.5h-8q3 -16 5.5 -39.5t2.5 -49.5v-211h-149v786h121l21 -71h8q22 33 59 57t95 24q92 0 149 -71.5t57 -210.5q0 -77 -19 -133.5t-52 -92.5l46 -60l-77 -58l-53 68q-27 -8 -55 -8zM334 437q-58 0 -81.5 -36t-25.5 -110v-16
q0 -79 23.5 -121.5t85.5 -42.5h8.5t8.5 1l-62 77l82 60l52 -64q5 19 8 41.5t3 49.5q0 161 -102 161z" />
    <glyph glyph-name="uni0492#0" unicode="&#x492;" horiz-adv-x="559" 
d="M539 714v-124h-298v-175h196v-124h-196v-291h-151v291h-67v124h67v299h449z" />
    <glyph glyph-name="uni0493#0" unicode="&#x493;" horiz-adv-x="491" 
d="M468 546v-121h-250v-106h162v-115h-162v-204h-149v204h-67v115h67v227h399z" />
    <glyph glyph-name="uni0494#0" unicode="&#x494;" horiz-adv-x="734" 
d="M323 262q-23 0 -45.5 -2.5t-36.5 -4.5v-255h-151v714h449v-124h-298v-198q27 4 59 6t66 2q54 0 109.5 -16.5t103 -54.5t76.5 -102t29 -158q0 -105 -37.5 -176t-97.5 -107t-130 -36q-54 0 -88.5 5.5t-69.5 17.5v133q31 -11 62 -17t66 -6q72 0 109.5 52.5t37.5 133.5
q0 99 -58 146t-155 47z" />
    <glyph glyph-name="uni0495#0" unicode="&#x495;" horiz-adv-x="602" 
d="M477 546v-121h-250v-118q36 6 73 6q72 0 132.5 -31.5t97.5 -94t37 -154.5q0 -96 -33 -157.5t-88 -91t-120 -29.5q-31 0 -62 5.5t-63 19.5v128q22 -12 51 -19t54 -7q50 0 84 35.5t34 117.5q0 67 -35.5 108t-118.5 41q-7 0 -19.5 -0.5t-23.5 -2.5v-181h-149v546h399z" />
    <glyph glyph-name="uni0496#0" unicode="&#x496;" horiz-adv-x="1029" 
d="M929 714l-240 -343l165 -241h155v-338h-146v208h-82l-239 362v-362h-141v362l-239 -362h-162l254 371l-240 343h156l231 -346v346h141v-346l231 346h156z" />
    <glyph glyph-name="uni0497#0" unicode="&#x497;" horiz-adv-x="942" 
d="M854 546l-201 -262l135 -175h130v-305h-134v196h-70l-208 277v-277h-139v277l-208 -277h-159l220 284l-201 262h154l194 -265v265h139v-265l194 265h154z" />
    <glyph glyph-name="uni0498#0" unicode="&#x498;" horiz-adv-x="648" 
d="M583 547q0 -72 -51 -116t-130 -55v-3q98 -10 150.5 -54.5t52.5 -115.5q0 -94 -76.5 -153.5t-224.5 -59.5q-81 0 -143.5 10t-108.5 29v127q31 -15 70 -25.5t79 -16t74 -5.5q95 0 137.5 27.5t42.5 77.5q0 51 -62 74.5t-167 23.5h-67v118h60q85 0 132 11t66 32t19 50
q0 37 -32.5 58.5t-97.5 21.5q-55 0 -103.5 -16t-90.5 -42l-66 101q55 36 122 57t159 21q121 0 188.5 -50t67.5 -127zM302 -111q0 26 -19 52.5t-53 58.5h87q37 -27 62.5 -56.5t25.5 -71.5q0 -49 -33 -80.5t-89 -31.5q-24 0 -42 3.5t-34 7.5v87q10 -3 25 -6t31 -3q17 0 28 10
t11 30z" />
    <glyph glyph-name="uni0499#0" unicode="&#x499;" horiz-adv-x="555" 
d="M277 556q59 0 110.5 -15.5t83 -47.5t31.5 -82q0 -49 -29.5 -78t-79.5 -42v-5q35 -8 63 -22.5t44.5 -39t16.5 -65.5q0 -45 -28.5 -83.5t-88.5 -62t-152 -23.5q-136 0 -210 34v123q34 -16 83.5 -29t105.5 -13q61 0 103 14t42 49q0 65 -155 65h-58v103h55q74 0 114.5 12
t40.5 45q0 26 -26 39.5t-85 13.5q-39 0 -85 -9t-87 -26l-44 104q47 18 103 29.5t132 11.5zM249 -111q0 26 -19 52.5t-53 58.5h87q37 -27 62.5 -56.5t25.5 -71.5q0 -49 -33 -80.5t-89 -31.5q-24 0 -42 3.5t-34 7.5v87q10 -3 25 -6t31 -3q17 0 28 10t11 30z" />
    </font>
</defs>
</svg>
