<?xml version="1.0" encoding="UTF-8"?>
<svg xmlns="http://www.w3.org/2000/svg" xmlns:xlink="http://www.w3.org/1999/xlink" version="1.2" >
<font id="Noto IKEA Latin Regular">
<font-face  font-family="Noto IKEA Latin" units-per-em="1000" ascent="1069" descent="-293" font-style="normal" font-weight="400" font-stretch="normal" cap-height="714" x-height="536" underline-position="-100" underline-thickness="50" />
<missing-glyph  horiz-adv-x="600" d="M94 0 L94 714 L505 714 L505 0 L94 0 Z M145 51 L454 51 L454 663 L145 663 L145 51 Z " />
<glyph glyph-name="space#0" unicode="&#x20;" horiz-adv-x="260" d="" />
<glyph glyph-name="exclam#0" unicode="&#x21;" horiz-adv-x="269" d="M163 201 L106 201 L81 714 L188 714 L163 201 Z M72 54 Q72 91 90 106 Q108 121 134 121 Q159 121 177.5 106 Q196 91 196 54 Q196 18 177.5 2 Q159 -14 134 -14 Q108 -14 90 2 Q72 18 72 54 Z " />
<glyph glyph-name="quotedbl#0" unicode="&#x22;" horiz-adv-x="408" d="M160 714 L140 456 L85 456 L65 714 L160 714 Z M343 714 L323 456 L268 456 L248 714 L343 714 Z " />
<glyph glyph-name="numbersign#0" unicode="&#x23;" horiz-adv-x="646" d="M480 436 L449 276 L586 276 L586 209 L436 209 L395 0 L324 0 L365 209 L222 209 L183 0 L113 0 L151 209 L25 209 L25 276 L164 276 L196 436 L62 436 L62 502 L208 502 L248 714 L320 714 L280 502 L424 502 L464 714 L533 714 L493 502 L620 502 L620 436 L480 436 Z M235 276 L378 276 L409 436 L266 436 L235 276 Z " />
<glyph glyph-name="dollar#0" unicode="&#x24;" horiz-adv-x="572" d="M253 -58 L253 49 Q198 50 146 58.5 Q94 67 62 82 L62 167 Q96 151 149 139 Q202 127 253 126 L253 328 Q154 355 108 396 Q62 437 62 508 Q62 582 113.5 624 Q165 666 253 671 L253 759 L317 759 L317 672 Q370 671 413.5 660.5 Q457 650 493 635 L466 561 Q434 574 395.5 583.5 Q357 593 317 596 L317 395 Q383 376 427 354.5 Q471 333 493.5 301.5 Q516 270 516 220 Q516 150 464 106.5 Q412 63 317 53 L317 -58 L253 -58 Z M253 417 L253 594 Q199 590 173.5 569 Q148 548 148 515 Q148 475 170.5 453.5 Q193 432 253 417 Z M317 131 Q376 137 403 158.5 Q430 180 430 214 Q430 252 406 271.5 Q382 291 317 307 L317 131 Z " />
<glyph glyph-name="percent#0" unicode="&#x25;" horiz-adv-x="831" d="M195 724 Q269 724 307 665.5 Q345 607 345 501 Q345 395 308.5 335.5 Q272 276 195 276 Q124 276 86.5 335.5 Q49 395 49 501 Q49 607 84 665.5 Q119 724 195 724 Z M652 714 L256 0 L179 0 L575 714 L652 714 Z M195 662 Q157 662 139.5 621.5 Q122 581 122 501 Q122 421 139.5 380 Q157 339 195 339 Q272 339 272 501 Q272 662 195 662 Z M632 438 Q705 438 743.5 379.5 Q782 321 782 215 Q782 109 745.5 49.5 Q709 -10 632 -10 Q561 -10 523.5 49.5 Q486 109 486 215 Q486 321 521 379.5 Q556 438 632 438 Z M632 375 Q594 375 576.5 335 Q559 295 559 215 Q559 134 576.5 93.5 Q594 53 632 53 Q709 53 709 215 Q709 375 632 375 Z " />
<glyph glyph-name="ampersand#0" unicode="&#x26;" horiz-adv-x="732" d="M304 725 Q384 725 430.5 684.5 Q477 644 477 571 Q477 508 436.5 464 Q396 420 334 384 L527 198 Q553 229 569.5 269.5 Q586 310 597 357 L686 357 Q670 293 646 238 Q622 183 584 142 L730 0 L611 0 L524 84 Q477 42 419 16 Q361 -10 278 -10 Q175 -10 114 41 Q53 92 53 186 Q53 263 94.5 309.5 Q136 356 207 396 Q175 432 147.5 473 Q120 514 120 569 Q120 643 169.5 684 Q219 725 304 725 Z M301 653 Q259 653 232.5 631 Q206 609 206 570 Q206 534 225 503.5 Q244 473 280 436 Q339 470 364.5 500.5 Q390 531 390 571 Q390 607 366 630 Q342 653 301 653 Z M260 341 Q206 309 175.5 276 Q145 243 145 189 Q145 134 182 101 Q219 68 281 68 Q345 68 391 89 Q437 110 468 139 L260 341 Z " />
<glyph glyph-name="quotesingle#0" unicode="&#x27;" horiz-adv-x="225" d="M160 714 L140 456 L85 456 L65 714 L160 714 Z " />
<glyph glyph-name="parenleft#0" unicode="&#x28;" horiz-adv-x="300" d="M40 274 Q40 396 75.5 509.5 Q111 623 187 714 L270 714 Q200 620 164.5 507 Q129 394 129 275 Q129 159 164.5 47.5 Q200 -64 269 -158 L187 -158 Q111 -70 75.5 41.5 Q40 153 40 274 Z " />
<glyph glyph-name="parenright#0" unicode="&#x29;" horiz-adv-x="300" d="M260 274 Q260 153 224.5 41.5 Q189 -70 113 -158 L31 -158 Q100 -64 135.5 47.5 Q171 159 171 275 Q171 394 135.5 507 Q100 620 30 714 L113 714 Q189 623 224.5 509.5 Q260 396 260 274 Z " />
<glyph glyph-name="asterisk#0" unicode="&#x2a;" horiz-adv-x="551" d="M322 760 L302 568 L494 622 L508 530 L324 515 L443 357 L357 310 L272 485 L195 310 L106 357 L223 515 L41 530 L55 622 L245 568 L224 760 L322 760 Z " />
<glyph glyph-name="plus#0" unicode="&#x2b;" horiz-adv-x="572" d="M321 388 L520 388 L520 317 L321 317 L321 111 L249 111 L249 317 L50 317 L50 388 L249 388 L249 595 L321 595 L321 388 Z " />
<glyph glyph-name="comma#0" unicode="&#x2c;" horiz-adv-x="268" d="M185 116 L192 105 Q179 52 154.5 -11.5 Q130 -75 106 -129 L41 -129 Q55 -72 69.5 -4 Q84 64 91 116 L185 116 Z " />
<glyph glyph-name="hyphen#0" unicode="&#x2d;" horiz-adv-x="322" d="M40 229 L40 307 L282 307 L282 229 L40 229 Z " />
<glyph glyph-name="period#0" unicode="&#x2e;" horiz-adv-x="268" d="M72 54 Q72 91 90 106 Q108 121 133 121 Q159 121 177.5 106 Q196 91 196 54 Q196 18 177.5 2 Q159 -14 133 -14 Q108 -14 90 2 Q72 18 72 54 Z " />
<glyph glyph-name="slash#0" unicode="&#x2f;" horiz-adv-x="372" d="M362 714 L96 0 L10 0 L276 714 L362 714 Z " />
<glyph glyph-name="colon#0" unicode="&#x3a;" horiz-adv-x="268" d="M72 482 Q72 520 90 535 Q108 550 133 550 Q159 550 177.5 535 Q196 520 196 482 Q196 446 177.5 430 Q159 414 133 414 Q108 414 90 430 Q72 446 72 482 Z M72 54 Q72 91 90 106 Q108 121 133 121 Q159 121 177.5 106 Q196 91 196 54 Q196 18 177.5 2 Q159 -14 133 -14 Q108 -14 90 2 Q72 18 72 54 Z " />
<glyph glyph-name="semicolon#0" unicode="&#x3b;" horiz-adv-x="268" d="M70 482 Q70 520 88 535 Q106 550 131 550 Q157 550 175.5 535 Q194 520 194 482 Q194 446 175.5 430 Q157 414 131 414 Q106 414 88 430 Q70 446 70 482 Z M176 116 L183 105 Q170 53 145.5 -11.5 Q121 -76 97 -129 L31 -129 Q40 -91 50 -47.5 Q60 -4 68.5 38.5 Q77 81 82 116 L176 116 Z " />
<glyph glyph-name="less#0" unicode="&#x3c;" horiz-adv-x="572" d="M521 116 L50 323 L50 373 L521 608 L521 530 L144 352 L521 194 L521 116 Z " />
<glyph glyph-name="equal#0" unicode="&#x3d;" horiz-adv-x="572" d="M56 416 L56 487 L514 487 L514 416 L56 416 Z M56 217 L56 288 L514 288 L514 217 L56 217 Z " />
<glyph glyph-name="greater#0" unicode="&#x3e;" horiz-adv-x="572" d="M50 194 L427 351 L50 530 L50 608 L521 373 L521 323 L50 116 L50 194 Z " />
<glyph glyph-name="question#0" unicode="&#x3f;" horiz-adv-x="434" d="M140 201 L140 228 Q140 266 147.5 293.5 Q155 321 173 345.5 Q191 370 224 398 Q263 430 284.5 452.5 Q306 475 315 496 Q324 517 324 547 Q324 595 293 621 Q262 647 203 647 Q154 647 116 634.5 Q78 622 43 605 L12 675 Q52 696 100.5 710 Q149 724 209 724 Q304 724 356 677 Q408 630 408 549 Q408 504 393.5 472.5 Q379 441 352.5 414.5 Q326 388 290 358 Q256 330 239 309 Q222 288 216 267.5 Q210 247 210 218 L210 201 L140 201 Z M117 54 Q117 91 134.5 106 Q152 121 179 121 Q204 121 222 106 Q240 91 240 54 Q240 18 222 2 Q204 -14 179 -14 Q152 -14 134.5 2 Q117 18 117 54 Z " />
<glyph glyph-name="at#0" unicode="&#x40;" horiz-adv-x="899" d="M841 357 Q841 311 830.5 267 Q820 223 798 187.5 Q776 152 744 130.5 Q712 109 668 109 Q622 109 595.5 135.5 Q569 162 563 196 L558 196 Q540 159 505 134 Q470 109 417 109 Q341 109 299.5 160 Q258 211 258 295 Q258 360 284 411 Q310 462 357.5 491 Q405 520 470 520 Q514 520 556.5 512.5 Q599 505 623 496 L613 293 Q612 275 612 267.5 Q612 260 612 257 Q612 205 630.5 188 Q649 171 674 171 Q705 171 726.5 196.5 Q748 222 759.5 264 Q771 306 771 358 Q771 450 733.5 515 Q696 580 630.5 614 Q565 648 482 648 Q368 648 289.5 601 Q211 554 170.5 471.5 Q130 389 130 283 Q130 135 208 56 Q286 -23 433 -23 Q494 -23 549.5 -9.5 Q605 4 648 20 L648 -48 Q605 -66 551.5 -77.5 Q498 -89 433 -89 Q315 -89 231 -45 Q147 -1 102.5 81.5 Q58 164 58 280 Q58 373 87 452.5 Q116 532 171 590.5 Q226 649 304.5 681.5 Q383 714 482 714 Q586 714 667 671 Q748 628 794.5 547.5 Q841 467 841 357 Z M336 293 Q336 229 361.5 200 Q387 171 430 171 Q486 171 510.5 213 Q535 255 539 322 L545 447 Q532 451 512 454 Q492 457 471 457 Q422 457 392 433 Q362 409 349 371.5 Q336 334 336 293 Z " />
<glyph glyph-name="A#0" unicode="A" horiz-adv-x="639" d="M545 0 L459 221 L176 221 L91 0 L0 0 L279 717 L360 717 L638 0 L545 0 Z M432 301 L352 517 Q349 525 342 546 Q335 567 328.5 589.5 Q322 612 318 624 Q311 593 302 563.5 Q293 534 287 517 L206 301 L432 301 Z " />
<glyph glyph-name="B#0" unicode="B" horiz-adv-x="650" d="M97 714 L301 714 Q435 714 503.5 674.5 Q572 635 572 537 Q572 474 537 432.5 Q502 391 436 379 L436 374 Q481 367 517.5 348 Q554 329 575 294 Q596 259 596 203 Q596 106 529.5 53 Q463 0 348 0 L97 0 L97 714 Z M187 410 L319 410 Q411 410 445 439.5 Q479 469 479 527 Q479 586 437.5 611.5 Q396 637 305 637 L187 637 L187 410 Z M187 335 L187 76 L331 76 Q426 76 463 113 Q500 150 500 210 Q500 266 461.5 300.5 Q423 335 324 335 L187 335 Z " />
<glyph glyph-name="C#0" unicode="C" horiz-adv-x="632" d="M403 645 Q288 645 222 568 Q156 491 156 357 Q156 224 217.5 146.5 Q279 69 402 69 Q449 69 491 77 Q533 85 573 97 L573 19 Q533 4 490.5 -3 Q448 -10 389 -10 Q280 -10 207 35 Q134 80 97.5 163 Q61 246 61 358 Q61 466 100.5 548.5 Q140 631 217 677.5 Q294 724 404 724 Q517 724 601 682 L565 606 Q532 621 491.5 633 Q451 645 403 645 Z " />
<glyph glyph-name="D#0" unicode="D" horiz-adv-x="730" d="M669 364 Q669 183 570.5 91.5 Q472 0 296 0 L97 0 L97 714 L317 714 Q424 714 503.5 674 Q583 634 626 556.5 Q669 479 669 364 Z M574 361 Q574 504 503.5 570.5 Q433 637 304 637 L187 637 L187 77 L284 77 Q574 77 574 361 Z " />
<glyph glyph-name="E#0" unicode="E" horiz-adv-x="556" d="M496 0 L97 0 L97 714 L496 714 L496 635 L187 635 L187 412 L478 412 L478 334 L187 334 L187 79 L496 79 L496 0 Z " />
<glyph glyph-name="F#0" unicode="F" horiz-adv-x="519" d="M187 0 L97 0 L97 714 L496 714 L496 635 L187 635 L187 382 L477 382 L477 303 L187 303 L187 0 Z " />
<glyph glyph-name="G#0" unicode="G" horiz-adv-x="728" d="M407 377 L654 377 L654 27 Q596 8 537 -1 Q478 -10 403 -10 Q292 -10 216 34.5 Q140 79 100.5 161.5 Q61 244 61 357 Q61 469 105 551 Q149 633 231.5 678.5 Q314 724 431 724 Q491 724 544.5 713 Q598 702 644 682 L610 604 Q572 621 524.5 633 Q477 645 426 645 Q298 645 226.5 568 Q155 491 155 357 Q155 272 182.5 206.5 Q210 141 269 104.5 Q328 68 424 68 Q471 68 504 73 Q537 78 564 85 L564 297 L407 297 L407 377 Z " />
<glyph glyph-name="H#0" unicode="H" horiz-adv-x="741" d="M643 0 L553 0 L553 333 L187 333 L187 0 L97 0 L97 714 L187 714 L187 412 L553 412 L553 714 L643 714 L643 0 Z " />
<glyph glyph-name="K#0" unicode="K" horiz-adv-x="619" d="M619 0 L513 0 L260 341 L187 277 L187 0 L97 0 L97 714 L187 714 L187 362 Q217 396 248 430 Q279 464 310 498 L503 714 L608 714 L325 403 L619 0 Z " />
<glyph glyph-name="L#0" unicode="L" horiz-adv-x="524" d="M97 0 L97 714 L187 714 L187 80 L499 80 L499 0 L97 0 Z " />
<glyph glyph-name="M#0" unicode="M" horiz-adv-x="907" d="M412 0 L177 626 L173 626 Q176 595 178 542.5 Q180 490 180 433 L180 0 L97 0 L97 714 L230 714 L450 129 L454 129 L678 714 L810 714 L810 0 L721 0 L721 439 Q721 491 723.5 542 Q726 593 728 625 L724 625 L486 0 L412 0 Z " />
<glyph glyph-name="N#0" unicode="N" horiz-adv-x="760" d="M663 0 L558 0 L176 593 L172 593 Q174 558 177 506 Q180 454 180 399 L180 0 L97 0 L97 714 L201 714 L582 123 L586 123 Q585 139 583.5 171 Q582 203 580.5 241 Q579 279 579 311 L579 714 L663 714 L663 0 Z " />
<glyph glyph-name="O#0" unicode="O" horiz-adv-x="781" d="M720 358 Q720 247 682.5 164.5 Q645 82 571.5 36 Q498 -10 391 -10 Q279 -10 206 36 Q133 82 97 165 Q61 248 61 359 Q61 469 97 551 Q133 633 206.5 679 Q280 725 392 725 Q499 725 572 679.5 Q645 634 682.5 551.5 Q720 469 720 358 Z M156 358 Q156 223 213 145.5 Q270 68 391 68 Q513 68 569 145.5 Q625 223 625 358 Q625 493 569 569.5 Q513 646 392 646 Q271 646 213.5 569.5 Q156 493 156 358 Z " />
<glyph glyph-name="P#0" unicode="P" horiz-adv-x="605" d="M286 714 Q426 714 490 659 Q554 604 554 504 Q554 445 527.5 393.5 Q501 342 438.5 310 Q376 278 269 278 L187 278 L187 0 L97 0 L97 714 L286 714 Z M278 637 L187 637 L187 355 L259 355 Q361 355 411 388 Q461 421 461 500 Q461 569 417 603 Q373 637 278 637 Z " />
<glyph glyph-name="Q#0" unicode="Q" horiz-adv-x="781" d="M720 358 Q720 227 667.5 135 Q615 43 512 8 L683 -170 L554 -170 L416 -9 Q410 -9 403.5 -9.5 Q397 -10 391 -10 Q279 -10 206 36 Q133 82 97 165 Q61 248 61 359 Q61 469 97 551 Q133 633 206.5 679 Q280 725 392 725 Q499 725 572 679.5 Q645 634 682.5 551.5 Q720 469 720 358 Z M156 358 Q156 223 213 145.5 Q270 68 391 68 Q513 68 569 145.5 Q625 223 625 358 Q625 493 569 569.5 Q513 646 392 646 Q271 646 213.5 569.5 Q156 493 156 358 Z " />
<glyph glyph-name="R#0" unicode="R" horiz-adv-x="622" d="M294 714 Q427 714 490.5 663.5 Q554 613 554 511 Q554 454 533 416 Q512 378 479.5 355.5 Q447 333 411 320 L607 0 L502 0 L329 295 L187 295 L187 0 L97 0 L97 714 L294 714 Z M289 636 L187 636 L187 371 L294 371 Q381 371 421 405.5 Q461 440 461 507 Q461 577 419 606.5 Q377 636 289 636 Z " />
<glyph glyph-name="S#0" unicode="S" horiz-adv-x="549" d="M502 191 Q502 96 433 43 Q364 -10 247 -10 Q187 -10 136 -1 Q85 8 51 24 L51 110 Q87 94 140.5 81 Q194 68 251 68 Q331 68 371.5 99 Q412 130 412 183 Q412 218 397 242 Q382 266 345.5 286.5 Q309 307 244 330 Q153 363 106.5 411 Q60 459 60 542 Q60 599 89 639.5 Q118 680 169.5 702 Q221 724 288 724 Q347 724 396 713 Q445 702 485 684 L457 607 Q420 623 376.5 634 Q333 645 286 645 Q219 645 185 616.5 Q151 588 151 541 Q151 505 166 481 Q181 457 215 438 Q249 419 307 397 Q370 374 413.5 347.5 Q457 321 479.5 284 Q502 247 502 191 Z " />
<glyph glyph-name="T#0" unicode="T" horiz-adv-x="556" d="M323 0 L233 0 L233 635 L10 635 L10 714 L545 714 L545 635 L323 635 L323 0 Z " />
<glyph glyph-name="U#0" unicode="U" horiz-adv-x="731" d="M640 714 L640 252 Q640 178 610 118.5 Q580 59 518.5 24.5 Q457 -10 362 -10 Q229 -10 159.5 62.5 Q90 135 90 254 L90 714 L180 714 L180 251 Q180 164 226.5 116 Q273 68 367 68 Q464 68 507.5 119.5 Q551 171 551 252 L551 714 L640 714 Z " />
<glyph glyph-name="V#0" unicode="V" horiz-adv-x="600" d="M600 714 L345 0 L255 0 L0 714 L94 714 L255 256 Q271 212 282 173.5 Q293 135 300 100 Q307 135 318 174 Q329 213 345 258 L505 714 L600 714 Z " />
<glyph glyph-name="W#0" unicode="W" horiz-adv-x="930" d="M917 714 L727 0 L636 0 L497 468 Q489 497 481 526 Q473 555 468 577.5 Q463 600 461 609 Q460 596 450.5 553.5 Q441 511 427 465 L292 0 L201 0 L12 714 L106 714 L217 278 Q229 232 237.5 189 Q246 146 251 108 Q256 147 266 193 Q276 239 289 283 L415 714 L508 714 L639 280 Q653 234 663 188.5 Q673 143 678 108 Q683 145 692 188.5 Q701 232 713 279 L823 714 L917 714 Z " />
<glyph glyph-name="X#0" unicode="X" horiz-adv-x="586" d="M582 0 L480 0 L291 310 L99 0 L4 0 L241 372 L19 714 L119 714 L294 434 L470 714 L565 714 L344 374 L582 0 Z " />
<glyph glyph-name="Y#0" unicode="Y" horiz-adv-x="566" d="M283 363 L469 714 L566 714 L328 277 L328 0 L238 0 L238 273 L0 714 L98 714 L283 363 Z " />
<glyph glyph-name="Z#0" unicode="Z" horiz-adv-x="572" d="M533 0 L38 0 L38 68 L414 634 L50 634 L50 714 L523 714 L523 646 L147 80 L533 80 L533 0 Z " />
<glyph glyph-name="bracketleft#0" unicode="&#x5b;" horiz-adv-x="329" d="M304 -158 L80 -158 L80 714 L304 714 L304 642 L166 642 L166 -86 L304 -86 L304 -158 Z " />
<glyph glyph-name="backslash#0" unicode="&#x5c;" horiz-adv-x="372" d="M96 714 L363 0 L276 0 L10 714 L96 714 Z " />
<glyph glyph-name="bracketright#0" unicode="&#x5d;" horiz-adv-x="329" d="M25 -86 L163 -86 L163 642 L25 642 L25 714 L249 714 L249 -158 L25 -158 L25 -86 Z " />
<glyph glyph-name="asciicircum#0" unicode="&#x5e;" horiz-adv-x="572" d="M38 267 L250 719 L300 719 L534 267 L456 267 L276 626 L116 267 L38 267 Z " />
<glyph glyph-name="underscore#0" unicode="&#x5f;" horiz-adv-x="444" d="M446 -154 L-2 -154 L-2 -90 L446 -90 L446 -154 Z " />
<glyph glyph-name="grave#0" unicode="&#x60;" horiz-adv-x="281" d="M145 766 Q156 744 172.5 716.5 Q189 689 207.5 662.5 Q226 636 241 618 L241 606 L182 606 Q159 624 130 652.5 Q101 681 76.5 709.5 Q52 738 40 756 L40 766 L145 766 Z " />
<glyph glyph-name="a#0" unicode="a" horiz-adv-x="561" d="M288 545 Q386 545 433 502 Q480 459 480 365 L480 0 L416 0 L399 76 L395 76 Q360 32 321.5 11 Q283 -10 215 -10 Q142 -10 94 28.5 Q46 67 46 149 Q46 229 109 272.5 Q172 316 303 320 L394 323 L394 355 Q394 422 365 448 Q336 474 283 474 Q241 474 203 461.5 Q165 449 132 433 L105 499 Q140 518 188 531.5 Q236 545 288 545 Z M393 262 L314 259 Q214 255 175.5 227 Q137 199 137 148 Q137 103 164.5 82 Q192 61 235 61 Q303 61 348 98.5 Q393 136 393 214 L393 262 Z " />
<glyph glyph-name="b#0" unicode="b" horiz-adv-x="615" d="M173 760 L173 575 Q173 541 171.5 511.5 Q170 482 168 465 L173 465 Q196 499 236 522 Q276 545 339 545 Q439 545 499.5 475.5 Q560 406 560 268 Q560 130 499 60 Q438 -10 339 -10 Q276 -10 236 13 Q196 36 173 68 L166 68 L148 0 L85 0 L85 760 L173 760 Z M324 472 Q239 472 206 423 Q173 374 173 271 L173 267 Q173 168 205.5 115.5 Q238 63 326 63 Q398 63 433.5 116 Q469 169 469 269 Q469 472 324 472 Z " />
<glyph glyph-name="c#0" unicode="c" horiz-adv-x="480" d="M300 -10 Q228 -10 173 19 Q118 48 86.5 109 Q55 170 55 265 Q55 364 88 426 Q121 488 177.5 517 Q234 546 306 546 Q347 546 385 537.5 Q423 529 447 517 L420 444 Q396 453 364 461 Q332 469 304 469 Q146 469 146 266 Q146 169 184.5 117.5 Q223 66 299 66 Q343 66 376.5 75 Q410 84 438 97 L438 19 Q411 5 378.5 -2.5 Q346 -10 300 -10 Z " />
<glyph glyph-name="d#0" unicode="d" horiz-adv-x="615" d="M275 -10 Q175 -10 115 59.5 Q55 129 55 267 Q55 405 115.5 475.5 Q176 546 276 546 Q338 546 377.5 523 Q417 500 442 467 L448 467 Q447 480 444.5 505.5 Q442 531 442 546 L442 760 L530 760 L530 0 L459 0 L446 72 L442 72 Q418 38 378 14 Q338 -10 275 -10 Z M289 63 Q374 63 408.5 109.5 Q443 156 443 250 L443 266 Q443 366 410 419.5 Q377 473 288 473 Q217 473 181.5 416.5 Q146 360 146 265 Q146 169 181.5 116 Q217 63 289 63 Z " />
<glyph glyph-name="e#0" unicode="e" horiz-adv-x="564" d="M292 546 Q360 546 410 516 Q460 486 486.5 431.5 Q513 377 513 304 L513 251 L146 251 Q148 160 192.5 112.5 Q237 65 317 65 Q368 65 407.5 74.5 Q447 84 489 102 L489 25 Q448 7 408 -1.5 Q368 -10 313 -10 Q237 -10 178.5 21 Q120 52 87.5 113 Q55 174 55 264 Q55 352 84.5 415 Q114 478 167.5 512 Q221 546 292 546 Z M291 474 Q228 474 191.5 433.5 Q155 393 148 321 L421 321 Q420 389 389 431.5 Q358 474 291 474 Z " />
<glyph glyph-name="f#0" unicode="f" horiz-adv-x="344" d="M332 468 L197 468 L197 0 L109 0 L109 468 L15 468 L15 509 L109 539 L109 570 Q109 674 155 719.5 Q201 765 283 765 Q315 765 341.5 759.5 Q368 754 387 747 L364 678 Q348 683 327 688 Q306 693 284 693 Q240 693 218.5 663.5 Q197 634 197 571 L197 536 L332 536 L332 468 Z " />
<glyph glyph-name="g#0" unicode="g" horiz-adv-x="615" d="M275 546 Q328 546 370.5 526 Q413 506 443 465 L448 465 L460 536 L530 536 L530 -9 Q530 -124 471.5 -182 Q413 -240 290 -240 Q172 -240 97 -206 L97 -125 Q176 -167 295 -167 Q364 -167 403.5 -126.5 Q443 -86 443 -16 L443 5 Q443 17 444 39.5 Q445 62 446 71 L442 71 Q388 -10 276 -10 Q172 -10 113.5 63 Q55 136 55 267 Q55 395 113.5 470.5 Q172 546 275 546 Z M287 472 Q220 472 183 418.5 Q146 365 146 266 Q146 167 182.5 114.5 Q219 62 289 62 Q370 62 407 105.5 Q444 149 444 246 L444 267 Q444 377 406 424.5 Q368 472 287 472 Z " />
<glyph glyph-name="h#0" unicode="h" horiz-adv-x="618" d="M173 760 L173 537 Q173 497 168 462 L174 462 Q200 503 244.5 524 Q289 545 341 545 Q439 545 488 498.5 Q537 452 537 349 L537 0 L450 0 L450 343 Q450 472 330 472 Q240 472 206.5 421.5 Q173 371 173 277 L173 0 L85 0 L85 760 L173 760 Z " />
<glyph glyph-name="i#0" unicode="i" horiz-adv-x="258" d="M130 737 Q150 737 165.5 723.5 Q181 710 181 681 Q181 653 165.5 639 Q150 625 130 625 Q108 625 93 639 Q78 653 78 681 Q78 710 93 723.5 Q108 737 130 737 Z M173 536 L173 0 L85 0 L85 536 L173 536 Z " />
<glyph glyph-name="j#0" unicode="j" horiz-adv-x="258" d="M78 681 Q78 710 93 723.5 Q108 737 130 737 Q150 737 165.5 723.5 Q181 710 181 681 Q181 653 165.5 639 Q150 625 130 625 Q108 625 93 639 Q78 653 78 681 Z M22 -240 Q-3 -240 -22 -236.5 Q-41 -233 -55 -228 L-55 -157 Q-40 -161 -24 -164 Q-8 -167 11 -167 Q43 -167 64 -149.5 Q85 -132 85 -83 L85 536 L173 536 L173 -80 Q173 -155 137 -197.5 Q101 -240 22 -240 Z " />
<glyph glyph-name="k#0" unicode="k" horiz-adv-x="534" d="M172 760 L172 363 Q172 347 170.5 321 Q169 295 168 276 L172 276 Q178 284 190 299 Q202 314 214.5 329.5 Q227 345 236 355 L407 536 L510 536 L293 307 L525 0 L419 0 L233 250 L172 197 L172 0 L85 0 L85 760 L172 760 Z " />
<glyph glyph-name="l#0" unicode="l" horiz-adv-x="258" d="M173 0 L85 0 L85 760 L173 760 L173 0 Z " />
<glyph glyph-name="m#0" unicode="m" horiz-adv-x="935" d="M673 546 Q764 546 809 499.5 Q854 453 854 349 L854 0 L767 0 L767 345 Q767 472 658 472 Q580 472 546.5 427 Q513 382 513 296 L513 0 L426 0 L426 345 Q426 472 316 472 Q235 472 204 422 Q173 372 173 278 L173 0 L85 0 L85 536 L156 536 L169 463 L174 463 Q199 505 241.5 525.5 Q284 546 332 546 Q458 546 496 456 L501 456 Q528 502 574.5 524 Q621 546 673 546 Z " />
<glyph glyph-name="n#0" unicode="n" horiz-adv-x="618" d="M343 546 Q439 546 488 499.5 Q537 453 537 349 L537 0 L450 0 L450 343 Q450 472 330 472 Q241 472 207 422 Q173 372 173 278 L173 0 L85 0 L85 536 L156 536 L169 463 L174 463 Q200 505 246 525.5 Q292 546 343 546 Z " />
<glyph glyph-name="o#0" unicode="o" horiz-adv-x="605" d="M551 269 Q551 136 483.5 63 Q416 -10 301 -10 Q230 -10 174.5 22.5 Q119 55 87 117.5 Q55 180 55 269 Q55 402 122 474 Q189 546 304 546 Q377 546 432.5 513.5 Q488 481 519.5 419.5 Q551 358 551 269 Z M146 269 Q146 174 183.5 118.5 Q221 63 303 63 Q384 63 422 118.5 Q460 174 460 269 Q460 364 422 418 Q384 472 302 472 Q220 472 183 418 Q146 364 146 269 Z " />
<glyph glyph-name="p#0" unicode="p" horiz-adv-x="615" d="M340 546 Q439 546 499.5 477 Q560 408 560 269 Q560 132 499.5 61 Q439 -10 339 -10 Q277 -10 236.5 13.5 Q196 37 173 68 L167 68 Q169 51 171 25 Q173 -1 173 -20 L173 -240 L85 -240 L85 536 L157 536 L169 463 L173 463 Q197 498 236 522 Q275 546 340 546 Z M324 472 Q242 472 208.5 426 Q175 380 173 286 L173 269 Q173 170 205.5 116.5 Q238 63 326 63 Q375 63 406.5 90 Q438 117 453.5 163.5 Q469 210 469 270 Q469 362 433.5 417 Q398 472 324 472 Z " />
<glyph glyph-name="q#0" unicode="q" horiz-adv-x="615" d="M442 -240 L442 -11 Q442 7 443 31 Q444 55 447 72 L441 72 Q418 38 377.5 14 Q337 -10 273 -10 Q176 -10 115.5 59.5 Q55 129 55 267 Q55 405 116.5 475.5 Q178 546 276 546 Q339 546 379 522 Q419 498 443 463 L447 463 L460 536 L530 536 L530 -240 L442 -240 Z M290 63 Q373 63 407.5 108.5 Q442 154 443 248 L443 266 Q443 368 409 420.5 Q375 473 288 473 Q216 473 181 416.5 Q146 360 146 265 Q146 170 181.5 116.5 Q217 63 290 63 Z " />
<glyph glyph-name="r#0" unicode="r" horiz-adv-x="413" d="M335 546 Q350 546 367.5 544.5 Q385 543 398 540 L387 459 Q374 462 358.5 464 Q343 466 329 466 Q288 466 252 443.5 Q216 421 194.5 380.5 Q173 340 173 286 L173 0 L85 0 L85 536 L157 536 L167 438 L171 438 Q197 482 238 514 Q279 546 335 546 Z " />
<glyph glyph-name="s#0" unicode="s" horiz-adv-x="479" d="M434 148 Q434 70 376 30 Q318 -10 220 -10 Q164 -10 123.5 -1 Q83 8 52 24 L52 104 Q84 88 129.5 74.5 Q175 61 222 61 Q289 61 319 82.5 Q349 104 349 140 Q349 160 338 176 Q327 192 298.5 208 Q270 224 217 244 Q165 264 128 284 Q91 304 71 332 Q51 360 51 404 Q51 472 106.5 509 Q162 546 252 546 Q301 546 343.5 536.5 Q386 527 423 510 L393 440 Q359 454 322 464 Q285 474 246 474 Q192 474 163.5 456.5 Q135 439 135 409 Q135 387 148 371.5 Q161 356 191.5 341.5 Q222 327 273 307 Q324 288 360 268 Q396 248 415 219.5 Q434 191 434 148 Z " />
<glyph glyph-name="t#0" unicode="t" horiz-adv-x="361" d="M264 62 Q284 62 305 65.5 Q326 69 339 73 L339 6 Q325 -1 299 -5.5 Q273 -10 249 -10 Q207 -10 171.5 4.5 Q136 19 114 55 Q92 91 92 156 L92 468 L16 468 L16 510 L93 545 L128 659 L180 659 L180 536 L335 536 L335 468 L180 468 L180 158 Q180 109 203.5 85.5 Q227 62 264 62 Z " />
<glyph glyph-name="u#0" unicode="u" horiz-adv-x="618" d="M533 536 L533 0 L461 0 L448 71 L444 71 Q418 29 372 9.5 Q326 -10 274 -10 Q177 -10 128 36.5 Q79 83 79 185 L79 536 L168 536 L168 191 Q168 63 287 63 Q376 63 410.5 113 Q445 163 445 257 L445 536 L533 536 Z " />
<glyph glyph-name="v#0" unicode="v" horiz-adv-x="508" d="M203 0 L0 536 L94 536 L208 220 Q216 198 225 171 Q234 144 241 119.5 Q248 95 251 78 L255 78 Q259 95 266.5 120 Q274 145 283.5 172 Q293 199 300 220 L414 536 L508 536 L304 0 L203 0 Z " />
<glyph glyph-name="w#0" unicode="w" horiz-adv-x="786" d="M523 1 L431 303 Q418 344 408.5 383.5 Q399 423 394 445 L390 445 Q386 423 377 383.5 Q368 344 354 302 L258 1 L158 1 L11 537 L102 537 L176 251 Q187 208 197 164 Q207 120 211 91 L215 91 Q218 108 224 133 Q230 158 237 185.5 Q244 213 251 235 L346 537 L442 537 L534 235 Q545 201 555.5 161 Q566 121 570 92 L574 92 Q577 117 587.5 161 Q598 205 610 251 L685 537 L775 537 L626 1 L523 1 Z " />
<glyph glyph-name="x#0" unicode="x" horiz-adv-x="529" d="M212 274 L27 536 L127 536 L265 334 L402 536 L501 536 L316 274 L511 0 L411 0 L265 214 L117 0 L18 0 L212 274 Z " />
<glyph glyph-name="y#0" unicode="y" horiz-adv-x="510" d="M1 536 L95 536 L211 231 Q226 191 238 154.5 Q250 118 256 85 L260 85 Q266 110 279 150.5 Q292 191 306 232 L415 536 L510 536 L279 -74 Q251 -150 206.5 -195 Q162 -240 84 -240 Q60 -240 42 -237.5 Q24 -235 11 -232 L11 -162 Q22 -164 37.5 -166 Q53 -168 70 -168 Q116 -168 144.5 -142 Q173 -116 189 -73 L217 -2 L1 536 Z " />
<glyph glyph-name="z#0" unicode="z" horiz-adv-x="470" d="M431 0 L39 0 L39 58 L327 468 L56 468 L56 536 L424 536 L424 470 L140 68 L431 68 L431 0 Z " />
<glyph glyph-name="braceleft#0" unicode="&#x7b;" horiz-adv-x="380" d="M348 -158 Q256 -157 203 -118 Q150 -79 150 1 L150 148 Q150 199 118.5 220.5 Q87 242 28 242 L28 315 Q87 316 118.5 337 Q150 358 150 408 L150 556 Q150 636 205 675 Q260 714 348 714 L348 642 Q296 641 266.5 619 Q237 597 237 548 L237 404 Q237 301 128 282 L128 276 Q237 257 237 154 L237 7 Q237 -42 266 -63.5 Q295 -85 348 -86 L348 -158 Z " />
<glyph glyph-name="bar#0" unicode="&#x7c;" horiz-adv-x="551" d="M239 760 L312 760 L312 -241 L239 -241 L239 760 Z " />
<glyph glyph-name="braceright#0" unicode="&#x7d;" horiz-adv-x="380" d="M32 -158 L32 -86 Q84 -84 113.5 -62.5 Q143 -41 143 8 L143 153 Q143 256 252 275 L252 281 Q143 300 143 403 L143 549 Q143 598 114 619.5 Q85 641 32 642 L32 714 Q124 713 177 674 Q230 635 230 555 L230 409 Q230 358 261.5 336.5 Q293 315 352 315 L352 242 Q293 241 261.5 220 Q230 199 230 149 L230 0 Q230 -79 175 -118.5 Q120 -158 32 -158 Z " />
<glyph glyph-name="asciitilde#0" unicode="&#x7e;" horiz-adv-x="572" d="M269 319 Q233 335 209.5 340.5 Q186 346 164 346 Q136 346 105 329 Q74 312 50 287 L50 365 Q98 418 170 418 Q199 418 227.5 412 Q256 406 302 386 Q338 370 361.5 364.5 Q385 359 406 359 Q435 359 466 376 Q497 393 521 418 L521 341 Q472 287 401 287 Q373 287 343.5 293.5 Q314 300 269 319 Z " />
<glyph glyph-name="uni00A0#0" unicode="&#xa0;" horiz-adv-x="260" d="" />
<glyph glyph-name="exclamdown#0" unicode="&#xa1;" horiz-adv-x="269" d="M196 478 Q196 441 178 426 Q160 411 134 411 Q109 411 90.5 426 Q72 441 72 478 Q72 514 90.5 530 Q109 546 134 546 Q160 546 178 530 Q196 514 196 478 Z M104 330 L162 330 L187 -182 L79 -182 L104 330 Z " />
<glyph glyph-name="cent#0" unicode="&#xa2;" horiz-adv-x="572" d="M353 724 L353 644 Q391 643 425.5 634.5 Q460 626 485 615 L459 542 Q433 552 400 560 Q367 568 340 568 Q258 568 219.5 517.5 Q181 467 181 363 Q181 259 220.5 211.5 Q260 164 336 164 Q380 164 412.5 172.5 Q445 181 476 194 L476 117 Q449 104 420 96.5 Q391 89 352 87 L352 -10 L285 -10 L285 90 Q226 99 182.5 129 Q139 159 115 216 Q91 273 91 362 Q91 453 115 511 Q139 569 183 600 Q227 631 285 640 L285 724 L353 724 Z " />
<glyph glyph-name="sterling#0" unicode="&#xa3;" horiz-adv-x="572" d="M334 723 Q389 723 433 711 Q477 699 511 682 L480 612 Q450 626 413.5 638 Q377 650 336 650 Q279 650 249 620.5 Q219 591 219 525 L219 386 L423 386 L423 320 L219 320 L219 216 Q219 155 198 125.5 Q177 96 151 80 L535 80 L535 0 L32 0 L32 74 Q75 85 103 117 Q131 149 131 215 L131 320 L35 320 L35 386 L131 386 L131 534 Q131 623 186.5 673 Q242 723 334 723 Z " />
<glyph glyph-name="currency#0" unicode="&#xa4;" horiz-adv-x="572" d="M90 353 Q90 383 99.5 411.5 Q109 440 125 463 L59 531 L108 578 L174 514 Q197 531 226 540 Q255 549 286 549 Q317 549 344.5 540 Q372 531 396 514 L463 578 L511 531 L447 464 Q462 441 472 412.5 Q482 384 482 353 Q482 290 447 241 L510 175 L463 128 L396 192 Q373 176 345 167 Q317 158 286 158 Q222 158 174 193 L108 129 L60 176 L125 242 Q109 265 99.5 293.5 Q90 322 90 353 Z M157 353 Q157 317 174 288 Q191 259 220.5 241.5 Q250 224 286 224 Q323 224 352 241.5 Q381 259 398.5 288 Q416 317 416 353 Q416 390 398.5 419.5 Q381 449 352 466.5 Q323 484 286 484 Q250 484 220.5 466.5 Q191 449 174 419.5 Q157 390 157 353 Z " />
<glyph glyph-name="yen#0" unicode="&#xa5;" horiz-adv-x="572" d="M285 365 L464 714 L556 714 L355 339 L479 339 L479 275 L328 275 L328 193 L479 193 L479 129 L328 129 L328 0 L242 0 L242 129 L91 129 L91 193 L242 193 L242 275 L91 275 L91 339 L213 339 L14 714 L107 714 L285 365 Z " />
<glyph glyph-name="brokenbar#0" unicode="&#xa6;" horiz-adv-x="551" d="M239 760 L312 760 L312 379 L239 379 L239 760 Z M239 140 L312 140 L312 -241 L239 -241 L239 140 Z " />
<glyph glyph-name="section#0" unicode="&#xa7;" horiz-adv-x="513" d="M67 395 Q67 445 91 475.5 Q115 506 146 521 Q110 541 90 568.5 Q70 596 70 636 Q70 696 121 730.5 Q172 765 267 765 Q323 765 362 755.5 Q401 746 438 731 L411 664 Q377 678 343 687.5 Q309 697 261 697 Q201 697 176.5 681.5 Q152 666 152 638 Q152 610 180 590.5 Q208 571 284 543 Q361 515 404 479 Q447 443 447 383 Q447 332 424 299.5 Q401 267 372 250 Q407 231 426.5 204.5 Q446 178 446 140 Q446 71 388.5 33 Q331 -5 228 -5 Q173 -5 132 3.5 Q91 12 59 28 L59 103 Q91 88 138 75 Q185 62 232 62 Q306 62 334 83.5 Q362 105 362 133 Q362 151 352.5 165.5 Q343 180 315.5 195 Q288 210 233 231 Q181 251 143.5 272 Q106 293 86.5 322 Q67 351 67 395 Z M142 405 Q142 368 173.5 342.5 Q205 317 285 287 L307 279 Q330 293 350.5 314.5 Q371 336 371 370 Q371 395 357.5 415 Q344 435 310 453.5 Q276 472 214 491 Q186 484 164 461 Q142 438 142 405 Z " />
<glyph glyph-name="dieresis#0" unicode="&#xa8;" horiz-adv-x="580" d="M149 681 Q149 707 163 718.5 Q177 730 196 730 Q215 730 229 718.5 Q243 707 243 681 Q243 656 229 643.5 Q215 631 196 631 Q177 631 163 643.5 Q149 656 149 681 Z M337 681 Q337 707 350.5 718.5 Q364 730 383 730 Q402 730 416 718.5 Q430 707 430 681 Q430 656 416 643.5 Q402 631 383 631 Q364 631 350.5 643.5 Q337 656 337 681 Z " />
<glyph glyph-name="copyright#0" unicode="&#xa9;" horiz-adv-x="832" d="M416 -10 Q336 -10 269 17 Q202 44 152.5 93.5 Q103 143 76 210 Q49 277 49 357 Q49 437 76 504 Q103 571 152.5 620.5 Q202 670 269 697 Q336 724 416 724 Q492 724 558.5 697 Q625 670 675.5 620.5 Q726 571 754.5 504 Q783 437 783 357 Q783 277 756 210 Q729 143 679.5 93.5 Q630 44 563 17 Q496 -10 416 -10 Z M416 43 Q480 43 536 66 Q592 89 635 131.5 Q678 174 702 231 Q726 288 726 357 Q726 422 703 479 Q680 536 638.5 579 Q597 622 540.5 646.5 Q484 671 416 671 Q325 671 255 630.5 Q185 590 145 519.5 Q105 449 105 357 Q105 292 128 235 Q151 178 192.5 135 Q234 92 291 67.5 Q348 43 416 43 Z M431 133 Q332 133 283 194.5 Q234 256 234 357 Q234 422 257 472.5 Q280 523 325 551.5 Q370 580 435 580 Q500 580 558 550 L529 489 Q479 515 436 515 Q377 515 344.5 473 Q312 431 312 357 Q312 281 340.5 239.5 Q369 198 435 198 Q458 198 486.5 204.5 Q515 211 540 221 L540 157 Q516 147 491 140 Q466 133 431 133 Z " />
<glyph glyph-name="ordfeminine#0" unicode="&#xaa;" horiz-adv-x="357" d="M177 722 Q242 722 275 695 Q308 668 308 609 L308 389 L261 389 L249 431 Q229 410 201 396.5 Q173 383 135 383 Q88 383 60 407.5 Q32 432 32 482 Q32 581 190 587 L246 589 L246 611 Q246 644 225 657 Q204 670 175 670 Q147 670 122 662.5 Q97 655 74 644 L52 693 Q78 706 110.5 714 Q143 722 177 722 Z M246 544 L198 542 Q138 540 117 524.5 Q96 509 96 482 Q96 457 110.5 445.5 Q125 434 150 434 Q201 434 223.5 457.5 Q246 481 246 521 L246 544 Z " />
<glyph glyph-name="guillemotleft#0" unicode="&#xab;" horiz-adv-x="509" d="M40 270 L208 471 L271 435 L131 264 L271 93 L208 56 L40 257 L40 270 Z M238 270 L408 471 L470 435 L330 264 L470 93 L408 56 L238 257 L238 270 Z " />
<glyph glyph-name="logicalnot#0" unicode="&#xac;" horiz-adv-x="572" d="M520 388 L520 128 L449 128 L449 317 L50 317 L50 388 L520 388 Z " />
<glyph glyph-name="uni00AD#0" unicode="&#xad;" horiz-adv-x="322" d="M40 229 L40 307 L282 307 L282 229 L40 229 Z " />
<glyph glyph-name="registered#0" unicode="&#xae;" horiz-adv-x="832" d="M416 -10 Q336 -10 269 17 Q202 44 152.5 93.5 Q103 143 76 210 Q49 277 49 357 Q49 437 76 504 Q103 571 152.5 620.5 Q202 670 269 697 Q336 724 416 724 Q492 724 558.5 697 Q625 670 675.5 620.5 Q726 571 754.5 504 Q783 437 783 357 Q783 277 756 210 Q729 143 679.5 93.5 Q630 44 563 17 Q496 -10 416 -10 Z M416 43 Q480 43 536 66 Q592 89 635 131.5 Q678 174 702 231 Q726 288 726 357 Q726 422 703 479 Q680 536 638.5 579 Q597 622 540.5 646.5 Q484 671 416 671 Q325 671 255 630.5 Q185 590 145 519.5 Q105 449 105 357 Q105 292 128 235 Q151 178 192.5 135 Q234 92 291 67.5 Q348 43 416 43 Z M279 138 L279 575 L407 575 Q489 575 527 543 Q565 511 565 446 Q565 399 541 371.5 Q517 344 487 332 L603 138 L517 138 L417 311 L355 311 L355 138 L279 138 Z M355 373 L405 373 Q444 373 466 393 Q488 413 488 444 Q488 479 468 495 Q448 511 404 511 L355 511 L355 373 Z " />
<glyph glyph-name="overscore#0" unicode="&#xaf;" horiz-adv-x="500" d="M503 760 L-3 760 L-3 826 L503 826 L503 760 Z " />
<glyph glyph-name="degree#0" unicode="&#xb0;" horiz-adv-x="428" d="M214 417 Q142 417 98.5 459.5 Q55 502 55 570 Q55 638 98 681 Q141 724 214 724 Q285 724 329 681 Q373 638 373 570 Q373 502 329 459.5 Q285 417 214 417 Z M215 476 Q263 476 285.5 502 Q308 528 308 570 Q308 614 284.5 640 Q261 666 215 666 Q166 666 143 640 Q120 614 120 570 Q120 528 143 502 Q166 476 215 476 Z " />
<glyph glyph-name="plusminus#0" unicode="&#xb1;" horiz-adv-x="572" d="M50 0 L50 71 L521 71 L521 0 L50 0 Z M321 391 L520 391 L520 320 L321 320 L321 114 L249 114 L249 320 L50 320 L50 391 L249 391 L249 598 L321 598 L321 391 Z " />
<glyph glyph-name="uni00B2#0" unicode="&#xb2;" horiz-adv-x="350" d="M306 416 L24 416 L24 470 L139 582 Q180 621 200.5 645.5 Q221 670 228.5 689.5 Q236 709 236 731 Q236 763 217.5 779 Q199 795 169 795 Q139 795 114.5 783.5 Q90 772 64 752 L29 798 Q58 823 92.5 838 Q127 853 170 853 Q234 853 270.5 821.5 Q307 790 307 735 Q307 686 277.5 647 Q248 608 192 555 L111 478 L306 478 L306 416 Z " />
<glyph glyph-name="uni00B3#0" unicode="&#xb3;" horiz-adv-x="350" d="M165 853 Q236 853 272 822 Q308 791 308 743 Q308 703 286.5 677 Q265 651 235 641 L235 638 Q274 631 297.5 605.5 Q321 580 321 539 Q321 481 279 444.5 Q237 408 148 408 Q111 408 79 414.5 Q47 421 17 436 L17 499 Q87 465 149 465 Q201 465 225 485.5 Q249 506 249 541 Q249 577 220 593.5 Q191 610 139 610 L82 610 L82 665 L139 665 Q189 665 212.5 684.5 Q236 704 236 735 Q236 767 215.5 781.5 Q195 796 166 796 Q135 796 108.5 785.5 Q82 775 55 758 L19 804 Q50 827 84.5 840 Q119 853 165 853 Z " />
<glyph glyph-name="acute#0" unicode="&#xb4;" horiz-adv-x="281" d="M241 766 L241 756 Q229 738 204 709.5 Q179 681 150 652.5 Q121 624 98 606 L40 606 L40 618 Q55 636 72.5 662.5 Q90 689 107 716.5 Q124 744 135 766 L241 766 Z " />
<glyph glyph-name="uni00B5#0" unicode="&#xb5;" horiz-adv-x="623" d="M538 536 L538 0 L467 0 L453 72 L448 72 Q423 32 383 11 Q343 -10 287 -10 Q248 -10 220 2.5 Q192 15 172 35 L168 35 Q170 17 171.5 -13 Q173 -43 173 -84 L173 -240 L85 -240 L85 536 L173 536 L173 190 Q173 63 293 63 Q382 63 416 113 Q450 163 450 257 L450 536 L538 536 Z " />
<glyph glyph-name="paragraph#0" unicode="&#xb6;" horiz-adv-x="655" d="M549 -127 L491 -127 L491 704 L389 704 L389 -127 L331 -127 L331 273 Q316 269 296.5 266.5 Q277 264 260 264 Q198 264 152 287 Q106 310 80.5 364 Q55 418 55 509 Q55 605 82.5 659.5 Q110 714 159.5 737 Q209 760 275 760 L549 760 L549 -127 Z " />
<glyph glyph-name="periodcentered#0" unicode="&#xb7;" horiz-adv-x="268" d="M72 353 Q72 390 90 405 Q108 420 133 420 Q159 420 177.5 405 Q196 390 196 353 Q196 317 177.5 301 Q159 285 133 285 Q108 285 90 301 Q72 317 72 353 Z " />
<glyph glyph-name="cedilla#0" unicode="&#xb8;" horiz-adv-x="225" d="M212 -139 Q212 -187 175 -213.5 Q138 -240 64 -240 Q32 -240 14 -235 L14 -180 Q23 -182 38 -183.5 Q53 -185 67 -185 Q103 -185 122 -175.5 Q141 -166 141 -141 Q141 -115 114.5 -103 Q88 -91 50 -86 L93 0 L151 0 L125 -53 Q161 -61 186.5 -81 Q212 -101 212 -139 Z " />
<glyph glyph-name="uni00B9#0" unicode="&#xb9;" horiz-adv-x="350" d="M240 844 L240 416 L169 416 L169 692 Q169 718 170.5 739 Q172 760 173 781 Q163 772 151 761.5 Q139 751 126 742 L72 703 L37 752 L167 844 L240 844 Z " />
<glyph glyph-name="ordmasculine#0" unicode="&#xba;" horiz-adv-x="376" d="M345 553 Q345 472 302 427.5 Q259 383 187 383 Q120 383 76 426.5 Q32 470 32 553 Q32 635 74 678.5 Q116 722 189 722 Q260 722 302.5 679 Q345 636 345 553 Z M95 553 Q95 495 117 465.5 Q139 436 188 436 Q237 436 259 465.5 Q281 495 281 553 Q281 612 259 640.5 Q237 669 188 669 Q139 669 117 640.5 Q95 612 95 553 Z " />
<glyph glyph-name="guillemotright#0" unicode="&#xbb;" horiz-adv-x="509" d="M469 257 L299 56 L237 93 L377 264 L237 435 L299 471 L469 270 L469 257 Z M270 257 L101 56 L39 93 L179 264 L39 435 L101 471 L270 270 L270 257 Z " />
<glyph glyph-name="onequarter#0" unicode="&#xbc;" horiz-adv-x="745" d="M126 0 L562 714 L637 714 L201 0 L126 0 Z M166 286 L166 562 Q166 588 167.5 609 Q169 630 170 651 Q160 642 148 631.5 Q136 621 123 612 L69 573 L34 622 L164 714 L237 714 L237 286 L166 286 Z M600 0 L600 96 L405 96 L405 148 L602 431 L675 431 L675 156 L736 156 L736 96 L675 96 L675 0 L600 0 Z M475 156 L600 156 L600 249 Q600 270 601 298 Q602 326 603 350 Q598 339 582 314.5 Q566 290 555 273 L475 156 Z " />
<glyph glyph-name="onehalf#0" unicode="&#xbd;" horiz-adv-x="771" d="M96 0 L532 714 L607 714 L171 0 L96 0 Z M154 286 L154 562 Q154 588 155.5 609 Q157 630 158 651 Q148 642 136 631.5 Q124 621 111 612 L57 573 L22 622 L152 714 L225 714 L225 286 L154 286 Z M445 0 L445 54 L560 166 Q601 205 621.5 229.5 Q642 254 649.5 273.5 Q657 293 657 315 Q657 347 638.5 363 Q620 379 590 379 Q560 379 535.5 367.5 Q511 356 485 336 L450 382 Q479 407 513.5 422 Q548 437 591 437 Q655 437 691.5 405.5 Q728 374 728 319 Q728 270 698.5 231 Q669 192 613 139 L532 62 L727 62 L727 0 L445 0 Z " />
<glyph glyph-name="threequarters#0" unicode="&#xbe;" horiz-adv-x="781" d="M146 278 Q109 278 77 284.5 Q45 291 15 306 L15 369 Q85 335 147 335 Q199 335 223 355.5 Q247 376 247 411 Q247 447 218 463.5 Q189 480 137 480 L80 480 L80 535 L137 535 Q187 535 210.5 554.5 Q234 574 234 605 Q234 637 213.5 651.5 Q193 666 164 666 Q133 666 106.5 655.5 Q80 645 53 628 L17 674 Q48 697 82.5 710 Q117 723 163 723 Q234 723 270 692 Q306 661 306 613 Q306 573 284.5 547 Q263 521 233 511 L233 508 Q272 501 295.5 475.5 Q319 450 319 409 Q319 351 277 314.5 Q235 278 146 278 Z M170 0 L606 714 L681 714 L245 0 L170 0 Z M636 0 L636 96 L441 96 L441 148 L638 431 L711 431 L711 156 L772 156 L772 96 L711 96 L711 0 L636 0 Z M511 156 L636 156 L636 249 Q636 270 637 298 Q638 326 639 350 Q634 339 618 314.5 Q602 290 591 273 L511 156 Z " />
<glyph glyph-name="questiondown#0" unicode="&#xbf;" horiz-adv-x="434" d="M292 331 L292 304 Q292 266 284.5 238.5 Q277 211 259 186.5 Q241 162 208 134 Q169 102 147.5 79.5 Q126 57 117 36 Q108 15 108 -15 Q108 -63 139 -89 Q170 -115 229 -115 Q278 -115 316 -102.5 Q354 -90 389 -73 L420 -143 Q380 -164 331.5 -178 Q283 -192 223 -192 Q128 -192 76 -145 Q24 -98 24 -17 Q24 28 38.5 59.5 Q53 91 79.5 117.5 Q106 144 142 174 Q176 202 193 223 Q210 244 216 264.5 Q222 285 222 314 L222 331 L292 331 Z M315 478 Q315 441 297.5 426 Q280 411 253 411 Q228 411 210 426 Q192 441 192 478 Q192 514 210 530 Q228 546 253 546 Q280 546 297.5 530 Q315 514 315 478 Z " />
<glyph glyph-name="Agrave#0" unicode="&#xc0;" horiz-adv-x="639" d="M545 0 L459 221 L176 221 L91 0 L0 0 L279 717 L360 717 L638 0 L545 0 Z M432 301 L352 517 Q349 525 342 546 Q335 567 328.5 589.5 Q322 612 318 624 Q311 593 302 563.5 Q293 534 287 517 L206 301 L432 301 Z M292 944 Q303 922 319.5 894.5 Q336 867 354.5 840.5 Q373 814 388 796 L388 784 L329 784 Q306 802 277 830.5 Q248 859 223.5 887.5 Q199 916 187 934 L187 944 L292 944 Z " />
<glyph glyph-name="Aacute#0" unicode="&#xc1;" horiz-adv-x="639" d="M545 0 L459 221 L176 221 L91 0 L0 0 L279 717 L360 717 L638 0 L545 0 Z M432 301 L352 517 Q349 525 342 546 Q335 567 328.5 589.5 Q322 612 318 624 Q311 593 302 563.5 Q293 534 287 517 L206 301 L432 301 Z M459 944 L459 934 Q447 916 422 887.5 Q397 859 368 830.5 Q339 802 316 784 L258 784 L258 796 Q273 814 290.5 840.5 Q308 867 325 894.5 Q342 922 353 944 L459 944 Z " />
<glyph glyph-name="Acircumflex#0" unicode="&#xc2;" horiz-adv-x="639" d="M545 0 L459 221 L176 221 L91 0 L0 0 L279 717 L360 717 L638 0 L545 0 Z M432 301 L352 517 Q349 525 342 546 Q335 567 328.5 589.5 Q322 612 318 624 Q311 593 302 563.5 Q293 534 287 517 L206 301 L432 301 Z M364 944 Q376 922 398.5 894.5 Q421 867 445.5 840.5 Q470 814 489 795 L489 784 L427 784 Q401 800 373 823.5 Q345 847 318 874 Q291 847 264 824 Q237 801 211 784 L151 784 L151 795 Q169 815 193 841 Q217 867 239 894.5 Q261 922 274 944 L364 944 Z " />
<glyph glyph-name="Atilde#0" unicode="&#xc3;" horiz-adv-x="639" d="M545 0 L459 221 L176 221 L91 0 L0 0 L279 717 L360 717 L638 0 L545 0 Z M432 301 L352 517 Q349 525 342 546 Q335 567 328.5 589.5 Q322 612 318 624 Q311 593 302 563.5 Q293 534 287 517 L206 301 L432 301 Z M134 784 Q140 843 168.5 877.5 Q197 912 244 912 Q274 912 300.5 897.5 Q327 883 351 869 Q375 855 396 855 Q419 855 431.5 869.5 Q444 884 451 913 L501 913 Q495 855 467 820 Q439 785 392 785 Q364 785 337.5 799 Q311 813 286.5 827.5 Q262 842 240 842 Q216 842 204 827.5 Q192 813 185 784 L134 784 Z " />
<glyph glyph-name="Adieresis#0" unicode="&#xc4;" horiz-adv-x="639" d="M545 0 L459 221 L176 221 L91 0 L0 0 L279 717 L360 717 L638 0 L545 0 Z M432 301 L352 517 Q349 525 342 546 Q335 567 328.5 589.5 Q322 612 318 624 Q311 593 302 563.5 Q293 534 287 517 L206 301 L432 301 Z M177 859 Q177 885 191 896.5 Q205 908 224 908 Q243 908 257 896.5 Q271 885 271 859 Q271 834 257 821.5 Q243 809 224 809 Q205 809 191 821.5 Q177 834 177 859 Z M365 859 Q365 885 378.5 896.5 Q392 908 411 908 Q430 908 444 896.5 Q458 885 458 859 Q458 834 444 821.5 Q430 809 411 809 Q392 809 378.5 821.5 Q365 834 365 859 Z " />
<glyph glyph-name="Aring#0" unicode="&#xc5;" horiz-adv-x="639" d="M545 0 L459 221 L176 221 L91 0 L0 0 L279 717 L360 717 L638 0 L545 0 Z M432 301 L352 517 Q349 525 342 546 Q335 567 328.5 589.5 Q322 612 318 624 Q311 593 302 563.5 Q293 534 287 517 L206 301 L432 301 Z M317 667 Q268 667 238 695 Q208 723 208 773 Q208 823 238 850.5 Q268 878 317 878 Q364 878 396 850.5 Q428 823 428 774 Q428 723 396.5 695 Q365 667 317 667 Z M317 717 Q342 717 357.5 732 Q373 747 373 773 Q373 799 357 814 Q341 829 317 829 Q293 829 277 814 Q261 799 261 773 Q261 747 275.5 732 Q290 717 317 717 Z " />
<glyph glyph-name="AE#0" unicode="&#xc6;" horiz-adv-x="881" d="M821 0 L449 0 L449 221 L199 221 L92 0 L-1 0 L338 714 L821 714 L821 635 L539 635 L539 412 L802 412 L802 334 L539 334 L539 79 L821 79 L821 0 Z M234 301 L449 301 L449 634 L391 634 L234 301 Z " />
<glyph glyph-name="Ccedilla#0" unicode="&#xc7;" horiz-adv-x="632" d="M403 645 Q288 645 222 568 Q156 491 156 357 Q156 224 217.5 146.5 Q279 69 402 69 Q449 69 491 77 Q533 85 573 97 L573 19 Q533 4 490.5 -3 Q448 -10 389 -10 Q280 -10 207 35 Q134 80 97.5 163 Q61 246 61 358 Q61 466 100.5 548.5 Q140 631 217 677.5 Q294 724 404 724 Q517 724 601 682 L565 606 Q532 621 491.5 633 Q451 645 403 645 Z M473 -139 Q473 -187 436 -213.5 Q399 -240 325 -240 Q293 -240 275 -235 L275 -180 Q284 -182 299 -183.5 Q314 -185 328 -185 Q364 -185 383 -175.5 Q402 -166 402 -141 Q402 -115 375.5 -103 Q349 -91 311 -86 L354 0 L412 0 L386 -53 Q422 -61 447.5 -81 Q473 -101 473 -139 Z " />
<glyph glyph-name="Egrave#0" unicode="&#xc8;" horiz-adv-x="556" d="M496 0 L97 0 L97 714 L496 714 L496 635 L187 635 L187 412 L478 412 L478 334 L187 334 L187 79 L496 79 L496 0 Z M279 944 Q290 922 306.5 894.5 Q323 867 341.5 840.5 Q360 814 375 796 L375 784 L316 784 Q293 802 264 830.5 Q235 859 210.5 887.5 Q186 916 174 934 L174 944 L279 944 Z " />
<glyph glyph-name="Eacute#0" unicode="&#xc9;" horiz-adv-x="556" d="M496 0 L97 0 L97 714 L496 714 L496 635 L187 635 L187 412 L478 412 L478 334 L187 334 L187 79 L496 79 L496 0 Z M446 944 L446 934 Q434 916 409 887.5 Q384 859 355 830.5 Q326 802 303 784 L245 784 L245 796 Q260 814 277.5 840.5 Q295 867 312 894.5 Q329 922 340 944 L446 944 Z " />
<glyph glyph-name="Ecircumflex#0" unicode="&#xca;" horiz-adv-x="556" d="M496 0 L97 0 L97 714 L496 714 L496 635 L187 635 L187 412 L478 412 L478 334 L187 334 L187 79 L496 79 L496 0 Z M351 944 Q363 922 385.5 894.5 Q408 867 432.5 840.5 Q457 814 476 795 L476 784 L414 784 Q388 800 360 823.5 Q332 847 305 874 Q278 847 251 824 Q224 801 198 784 L138 784 L138 795 Q156 815 180 841 Q204 867 226 894.5 Q248 922 261 944 L351 944 Z " />
<glyph glyph-name="Edieresis#0" unicode="&#xcb;" horiz-adv-x="556" d="M496 0 L97 0 L97 714 L496 714 L496 635 L187 635 L187 412 L478 412 L478 334 L187 334 L187 79 L496 79 L496 0 Z M164 859 Q164 885 178 896.5 Q192 908 211 908 Q230 908 244 896.5 Q258 885 258 859 Q258 834 244 821.5 Q230 809 211 809 Q192 809 178 821.5 Q164 834 164 859 Z M352 859 Q352 885 365.5 896.5 Q379 908 398 908 Q417 908 431 896.5 Q445 885 445 859 Q445 834 431 821.5 Q417 809 398 809 Q379 809 365.5 821.5 Q352 834 352 859 Z " />
<glyph glyph-name="Eth#0" unicode="&#xd0;" horiz-adv-x="730" d="M317 714 Q424 714 503 674 Q582 634 625.5 556.5 Q669 479 669 364 Q669 183 570.5 91.5 Q472 0 295 0 L104 0 L104 314 L30 314 L30 392 L104 392 L104 714 L317 714 Z M304 637 L194 637 L194 392 L372 392 L372 314 L194 314 L194 77 L284 77 Q574 77 574 361 Q574 504 503 570.5 Q432 637 304 637 Z " />
<glyph glyph-name="Ntilde#0" unicode="&#xd1;" horiz-adv-x="760" d="M663 0 L558 0 L176 593 L172 593 Q174 558 177 506 Q180 454 180 399 L180 0 L97 0 L97 714 L201 714 L582 123 L586 123 Q585 139 583.5 171 Q582 203 580.5 241 Q579 279 579 311 L579 714 L663 714 L663 0 Z M196 784 Q202 843 230.5 877.5 Q259 912 306 912 Q336 912 362.5 897.5 Q389 883 413 869 Q437 855 458 855 Q481 855 493.5 869.5 Q506 884 513 913 L563 913 Q557 855 529 820 Q501 785 454 785 Q426 785 399.5 799 Q373 813 348.5 827.5 Q324 842 302 842 Q278 842 266 827.5 Q254 813 247 784 L196 784 Z " />
<glyph glyph-name="Ograve#0" unicode="&#xd2;" horiz-adv-x="781" d="M720 358 Q720 247 682.5 164.5 Q645 82 571.5 36 Q498 -10 391 -10 Q279 -10 206 36 Q133 82 97 165 Q61 248 61 359 Q61 469 97 551 Q133 633 206.5 679 Q280 725 392 725 Q499 725 572 679.5 Q645 634 682.5 551.5 Q720 469 720 358 Z M156 358 Q156 223 213 145.5 Q270 68 391 68 Q513 68 569 145.5 Q625 223 625 358 Q625 493 569 569.5 Q513 646 392 646 Q271 646 213.5 569.5 Q156 493 156 358 Z M365 944 Q376 922 392.5 894.5 Q409 867 427.5 840.5 Q446 814 461 796 L461 784 L402 784 Q379 802 350 830.5 Q321 859 296.5 887.5 Q272 916 260 934 L260 944 L365 944 Z " />
<glyph glyph-name="Oacute#0" unicode="&#xd3;" horiz-adv-x="781" d="M720 358 Q720 247 682.5 164.5 Q645 82 571.5 36 Q498 -10 391 -10 Q279 -10 206 36 Q133 82 97 165 Q61 248 61 359 Q61 469 97 551 Q133 633 206.5 679 Q280 725 392 725 Q499 725 572 679.5 Q645 634 682.5 551.5 Q720 469 720 358 Z M156 358 Q156 223 213 145.5 Q270 68 391 68 Q513 68 569 145.5 Q625 223 625 358 Q625 493 569 569.5 Q513 646 392 646 Q271 646 213.5 569.5 Q156 493 156 358 Z M532 944 L532 934 Q520 916 495 887.5 Q470 859 441 830.5 Q412 802 389 784 L331 784 L331 796 Q346 814 363.5 840.5 Q381 867 398 894.5 Q415 922 426 944 L532 944 Z " />
<glyph glyph-name="Ocircumflex#0" unicode="&#xd4;" horiz-adv-x="781" d="M720 358 Q720 247 682.5 164.5 Q645 82 571.5 36 Q498 -10 391 -10 Q279 -10 206 36 Q133 82 97 165 Q61 248 61 359 Q61 469 97 551 Q133 633 206.5 679 Q280 725 392 725 Q499 725 572 679.5 Q645 634 682.5 551.5 Q720 469 720 358 Z M156 358 Q156 223 213 145.5 Q270 68 391 68 Q513 68 569 145.5 Q625 223 625 358 Q625 493 569 569.5 Q513 646 392 646 Q271 646 213.5 569.5 Q156 493 156 358 Z M437 944 Q449 922 471.5 894.5 Q494 867 518.5 840.5 Q543 814 562 795 L562 784 L500 784 Q474 800 446 823.5 Q418 847 391 874 Q364 847 337 824 Q310 801 284 784 L224 784 L224 795 Q242 815 266 841 Q290 867 312 894.5 Q334 922 347 944 L437 944 Z " />
<glyph glyph-name="Otilde#0" unicode="&#xd5;" horiz-adv-x="781" d="M720 358 Q720 247 682.5 164.5 Q645 82 571.5 36 Q498 -10 391 -10 Q279 -10 206 36 Q133 82 97 165 Q61 248 61 359 Q61 469 97 551 Q133 633 206.5 679 Q280 725 392 725 Q499 725 572 679.5 Q645 634 682.5 551.5 Q720 469 720 358 Z M156 358 Q156 223 213 145.5 Q270 68 391 68 Q513 68 569 145.5 Q625 223 625 358 Q625 493 569 569.5 Q513 646 392 646 Q271 646 213.5 569.5 Q156 493 156 358 Z M207 784 Q213 843 241.5 877.5 Q270 912 317 912 Q347 912 373.5 897.5 Q400 883 424 869 Q448 855 469 855 Q492 855 504.5 869.5 Q517 884 524 913 L574 913 Q568 855 540 820 Q512 785 465 785 Q437 785 410.5 799 Q384 813 359.5 827.5 Q335 842 313 842 Q289 842 277 827.5 Q265 813 258 784 L207 784 Z " />
<glyph glyph-name="Odieresis#0" unicode="&#xd6;" horiz-adv-x="781" d="M720 358 Q720 247 682.5 164.5 Q645 82 571.5 36 Q498 -10 391 -10 Q279 -10 206 36 Q133 82 97 165 Q61 248 61 359 Q61 469 97 551 Q133 633 206.5 679 Q280 725 392 725 Q499 725 572 679.5 Q645 634 682.5 551.5 Q720 469 720 358 Z M156 358 Q156 223 213 145.5 Q270 68 391 68 Q513 68 569 145.5 Q625 223 625 358 Q625 493 569 569.5 Q513 646 392 646 Q271 646 213.5 569.5 Q156 493 156 358 Z M250 859 Q250 885 264 896.5 Q278 908 297 908 Q316 908 330 896.5 Q344 885 344 859 Q344 834 330 821.5 Q316 809 297 809 Q278 809 264 821.5 Q250 834 250 859 Z M438 859 Q438 885 451.5 896.5 Q465 908 484 908 Q503 908 517 896.5 Q531 885 531 859 Q531 834 517 821.5 Q503 809 484 809 Q465 809 451.5 821.5 Q438 834 438 859 Z " />
<glyph glyph-name="multiply#0" unicode="&#xd7;" horiz-adv-x="572" d="M456 574 L506 523 L336 353 L505 183 L455 132 L284 301 L117 132 L65 183 L234 353 L64 522 L116 574 L285 403 L456 574 Z " />
<glyph glyph-name="Oslash#0" unicode="&#xd8;" horiz-adv-x="781" d="M720 358 Q720 247 682.5 164.5 Q645 82 571.5 36 Q498 -10 391 -10 Q279 -10 206 37 L158 -31 L97 9 L149 83 Q105 132 83 202 Q61 272 61 359 Q61 469 97 551 Q133 633 206.5 679 Q280 725 392 725 Q444 725 488.5 713 Q533 701 570 680 L616 746 L677 705 L626 634 Q720 535 720 358 Z M156 358 Q156 297 167.5 247 Q179 197 203 160 L522 611 Q470 646 392 646 Q271 646 213.5 569.5 Q156 493 156 358 Z M625 358 Q625 487 574 560 L254 106 Q280 88 314.5 78 Q349 68 391 68 Q513 68 569 145.5 Q625 223 625 358 Z " />
<glyph glyph-name="Ugrave#0" unicode="&#xd9;" horiz-adv-x="731" d="M640 714 L640 252 Q640 178 610 118.5 Q580 59 518.5 24.5 Q457 -10 362 -10 Q229 -10 159.5 62.5 Q90 135 90 254 L90 714 L180 714 L180 251 Q180 164 226.5 116 Q273 68 367 68 Q464 68 507.5 119.5 Q551 171 551 252 L551 714 L640 714 Z M340 944 Q351 922 367.5 894.5 Q384 867 402.5 840.5 Q421 814 436 796 L436 784 L377 784 Q354 802 325 830.5 Q296 859 271.5 887.5 Q247 916 235 934 L235 944 L340 944 Z " />
<glyph glyph-name="Uacute#0" unicode="&#xda;" horiz-adv-x="731" d="M640 714 L640 252 Q640 178 610 118.5 Q580 59 518.5 24.5 Q457 -10 362 -10 Q229 -10 159.5 62.5 Q90 135 90 254 L90 714 L180 714 L180 251 Q180 164 226.5 116 Q273 68 367 68 Q464 68 507.5 119.5 Q551 171 551 252 L551 714 L640 714 Z M507 944 L507 934 Q495 916 470 887.5 Q445 859 416 830.5 Q387 802 364 784 L306 784 L306 796 Q321 814 338.5 840.5 Q356 867 373 894.5 Q390 922 401 944 L507 944 Z " />
<glyph glyph-name="Ucircumflex#0" unicode="&#xdb;" horiz-adv-x="731" d="M640 714 L640 252 Q640 178 610 118.5 Q580 59 518.5 24.5 Q457 -10 362 -10 Q229 -10 159.5 62.5 Q90 135 90 254 L90 714 L180 714 L180 251 Q180 164 226.5 116 Q273 68 367 68 Q464 68 507.5 119.5 Q551 171 551 252 L551 714 L640 714 Z M412 944 Q424 922 446.5 894.5 Q469 867 493.5 840.5 Q518 814 537 795 L537 784 L475 784 Q449 800 421 823.5 Q393 847 366 874 Q339 847 312 824 Q285 801 259 784 L199 784 L199 795 Q217 815 241 841 Q265 867 287 894.5 Q309 922 322 944 L412 944 Z " />
<glyph glyph-name="Udieresis#0" unicode="&#xdc;" horiz-adv-x="731" d="M640 714 L640 252 Q640 178 610 118.5 Q580 59 518.5 24.5 Q457 -10 362 -10 Q229 -10 159.5 62.5 Q90 135 90 254 L90 714 L180 714 L180 251 Q180 164 226.5 116 Q273 68 367 68 Q464 68 507.5 119.5 Q551 171 551 252 L551 714 L640 714 Z M225 859 Q225 885 239 896.5 Q253 908 272 908 Q291 908 305 896.5 Q319 885 319 859 Q319 834 305 821.5 Q291 809 272 809 Q253 809 239 821.5 Q225 834 225 859 Z M413 859 Q413 885 426.5 896.5 Q440 908 459 908 Q478 908 492 896.5 Q506 885 506 859 Q506 834 492 821.5 Q478 809 459 809 Q440 809 426.5 821.5 Q413 834 413 859 Z " />
<glyph glyph-name="Yacute#0" unicode="&#xdd;" horiz-adv-x="566" d="M283 363 L469 714 L566 714 L328 277 L328 0 L238 0 L238 273 L0 714 L98 714 L283 363 Z M424 944 L424 934 Q412 916 387 887.5 Q362 859 333 830.5 Q304 802 281 784 L223 784 L223 796 Q238 814 255.5 840.5 Q273 867 290 894.5 Q307 922 318 944 L424 944 Z " />
<glyph glyph-name="Thorn#0" unicode="&#xde;" horiz-adv-x="605" d="M554 382 Q554 322 528 270.5 Q502 219 439.5 187 Q377 155 268 155 L187 155 L187 0 L97 0 L97 714 L187 714 L187 590 L283 590 Q428 590 491 535 Q554 480 554 382 Z M187 231 L259 231 Q364 231 412.5 264.5 Q461 298 461 377 Q461 446 417.5 479.5 Q374 513 276 513 L187 513 L187 231 Z " />
<glyph glyph-name="germandbls#0" unicode="&#xdf;" horiz-adv-x="631" d="M522 617 Q522 583 508 557.5 Q494 532 473 512.5 Q452 493 431 477 Q410 461 396 445.5 Q382 430 382 412 Q382 399 388.5 388 Q395 377 414 362.5 Q433 348 470 323 Q524 287 555 249.5 Q586 212 586 153 Q586 68 534.5 29 Q483 -10 400 -10 Q353 -10 317 -1 Q281 8 255 24 L255 103 Q281 87 319 74 Q357 61 397 61 Q452 61 476 84 Q500 107 500 147 Q500 183 479.5 208 Q459 233 406 267 Q343 308 320 337.5 Q297 367 297 407 Q297 438 310.5 460 Q324 482 344.5 498.5 Q365 515 385.5 531 Q406 547 419.5 566 Q433 585 433 612 Q433 654 397.5 673 Q362 692 306 692 Q271 692 240.5 682.5 Q210 673 191.5 649.5 Q173 626 173 584 L173 0 L85 0 L85 584 Q85 651 114 690.5 Q143 730 193 747.5 Q243 765 306 765 Q403 765 462.5 728 Q522 691 522 617 Z " />
<glyph glyph-name="agrave#0" unicode="&#xe0;" horiz-adv-x="561" d="M288 545 Q386 545 433 502 Q480 459 480 365 L480 0 L416 0 L399 76 L395 76 Q360 32 321.5 11 Q283 -10 215 -10 Q142 -10 94 28.5 Q46 67 46 149 Q46 229 109 272.5 Q172 316 303 320 L394 323 L394 355 Q394 422 365 448 Q336 474 283 474 Q241 474 203 461.5 Q165 449 132 433 L105 499 Q140 518 188 531.5 Q236 545 288 545 Z M393 262 L314 259 Q214 255 175.5 227 Q137 199 137 148 Q137 103 164.5 82 Q192 61 235 61 Q303 61 348 98.5 Q393 136 393 214 L393 262 Z M255 766 Q266 744 282.5 716.5 Q299 689 317.5 662.5 Q336 636 351 618 L351 606 L292 606 Q269 624 240 652.5 Q211 681 186.5 709.5 Q162 738 150 756 L150 766 L255 766 Z " />
<glyph glyph-name="aacute#0" unicode="&#xe1;" horiz-adv-x="561" d="M288 545 Q386 545 433 502 Q480 459 480 365 L480 0 L416 0 L399 76 L395 76 Q360 32 321.5 11 Q283 -10 215 -10 Q142 -10 94 28.5 Q46 67 46 149 Q46 229 109 272.5 Q172 316 303 320 L394 323 L394 355 Q394 422 365 448 Q336 474 283 474 Q241 474 203 461.5 Q165 449 132 433 L105 499 Q140 518 188 531.5 Q236 545 288 545 Z M393 262 L314 259 Q214 255 175.5 227 Q137 199 137 148 Q137 103 164.5 82 Q192 61 235 61 Q303 61 348 98.5 Q393 136 393 214 L393 262 Z M422 766 L422 756 Q410 738 385 709.5 Q360 681 331 652.5 Q302 624 279 606 L221 606 L221 618 Q236 636 253.5 662.5 Q271 689 288 716.5 Q305 744 316 766 L422 766 Z " />
<glyph glyph-name="acircumflex#0" unicode="&#xe2;" horiz-adv-x="561" d="M288 545 Q386 545 433 502 Q480 459 480 365 L480 0 L416 0 L399 76 L395 76 Q360 32 321.5 11 Q283 -10 215 -10 Q142 -10 94 28.5 Q46 67 46 149 Q46 229 109 272.5 Q172 316 303 320 L394 323 L394 355 Q394 422 365 448 Q336 474 283 474 Q241 474 203 461.5 Q165 449 132 433 L105 499 Q140 518 188 531.5 Q236 545 288 545 Z M393 262 L314 259 Q214 255 175.5 227 Q137 199 137 148 Q137 103 164.5 82 Q192 61 235 61 Q303 61 348 98.5 Q393 136 393 214 L393 262 Z M327 766 Q339 744 361.5 716.5 Q384 689 408.5 662.5 Q433 636 452 617 L452 606 L390 606 Q364 622 336 645.5 Q308 669 281 696 Q254 669 227 646 Q200 623 174 606 L114 606 L114 617 Q132 637 156 663 Q180 689 202 716.5 Q224 744 237 766 L327 766 Z " />
<glyph glyph-name="atilde#0" unicode="&#xe3;" horiz-adv-x="561" d="M288 545 Q386 545 433 502 Q480 459 480 365 L480 0 L416 0 L399 76 L395 76 Q360 32 321.5 11 Q283 -10 215 -10 Q142 -10 94 28.5 Q46 67 46 149 Q46 229 109 272.5 Q172 316 303 320 L394 323 L394 355 Q394 422 365 448 Q336 474 283 474 Q241 474 203 461.5 Q165 449 132 433 L105 499 Q140 518 188 531.5 Q236 545 288 545 Z M393 262 L314 259 Q214 255 175.5 227 Q137 199 137 148 Q137 103 164.5 82 Q192 61 235 61 Q303 61 348 98.5 Q393 136 393 214 L393 262 Z M97 606 Q103 665 131.5 699.5 Q160 734 207 734 Q237 734 263.5 719.5 Q290 705 314 691 Q338 677 359 677 Q382 677 394.5 691.5 Q407 706 414 735 L464 735 Q458 677 430 642 Q402 607 355 607 Q327 607 300.5 621 Q274 635 249.5 649.5 Q225 664 203 664 Q179 664 167 649.5 Q155 635 148 606 L97 606 Z " />
<glyph glyph-name="adieresis#0" unicode="&#xe4;" horiz-adv-x="561" d="M288 545 Q386 545 433 502 Q480 459 480 365 L480 0 L416 0 L399 76 L395 76 Q360 32 321.5 11 Q283 -10 215 -10 Q142 -10 94 28.5 Q46 67 46 149 Q46 229 109 272.5 Q172 316 303 320 L394 323 L394 355 Q394 422 365 448 Q336 474 283 474 Q241 474 203 461.5 Q165 449 132 433 L105 499 Q140 518 188 531.5 Q236 545 288 545 Z M393 262 L314 259 Q214 255 175.5 227 Q137 199 137 148 Q137 103 164.5 82 Q192 61 235 61 Q303 61 348 98.5 Q393 136 393 214 L393 262 Z M140 681 Q140 707 154 718.5 Q168 730 187 730 Q206 730 220 718.5 Q234 707 234 681 Q234 656 220 643.5 Q206 631 187 631 Q168 631 154 643.5 Q140 656 140 681 Z M328 681 Q328 707 341.5 718.5 Q355 730 374 730 Q393 730 407 718.5 Q421 707 421 681 Q421 656 407 643.5 Q393 631 374 631 Q355 631 341.5 643.5 Q328 656 328 681 Z " />
<glyph glyph-name="aring#0" unicode="&#xe5;" horiz-adv-x="561" d="M288 545 Q386 545 433 502 Q480 459 480 365 L480 0 L416 0 L399 76 L395 76 Q360 32 321.5 11 Q283 -10 215 -10 Q142 -10 94 28.5 Q46 67 46 149 Q46 229 109 272.5 Q172 316 303 320 L394 323 L394 355 Q394 422 365 448 Q336 474 283 474 Q241 474 203 461.5 Q165 449 132 433 L105 499 Q140 518 188 531.5 Q236 545 288 545 Z M393 262 L314 259 Q214 255 175.5 227 Q137 199 137 148 Q137 103 164.5 82 Q192 61 235 61 Q303 61 348 98.5 Q393 136 393 214 L393 262 Z M282 606 Q233 606 203 634 Q173 662 173 712 Q173 762 203 789.5 Q233 817 282 817 Q329 817 361 789.5 Q393 762 393 713 Q393 662 361.5 634 Q330 606 282 606 Z M282 656 Q307 656 322.5 671 Q338 686 338 712 Q338 738 322 753 Q306 768 282 768 Q258 768 242 753 Q226 738 226 712 Q226 686 240.5 671 Q255 656 282 656 Z " />
<glyph glyph-name="ae#0" unicode="&#xe6;" horiz-adv-x="864" d="M603 546 Q668 546 715 516 Q762 486 787.5 431.5 Q813 377 813 306 L813 252 L470 252 Q472 156 511.5 110.5 Q551 65 625 65 Q675 65 713 74.5 Q751 84 789 102 L789 25 Q749 7 710.5 -1.5 Q672 -10 622 -10 Q481 -10 419 103 Q385 51 339 20.5 Q293 -10 216 -10 Q143 -10 94.5 28.5 Q46 67 46 149 Q46 229 106 272.5 Q166 316 290 320 L380 323 L380 357 Q380 422 349.5 448 Q319 474 268 474 Q228 474 189.5 462 Q151 450 118 433 L91 499 Q126 519 176 532 Q226 545 275 545 Q337 545 377.5 524.5 Q418 504 439 459 Q465 500 507 523 Q549 546 603 546 Z M602 474 Q544 474 510.5 434.5 Q477 395 472 321 L720 321 Q720 390 691.5 432 Q663 474 602 474 Z M378 262 L303 259 Q209 255 173 227 Q137 199 137 148 Q137 103 162.5 82 Q188 61 230 61 Q293 61 335.5 98.5 Q378 136 378 214 L378 262 Z " />
<glyph glyph-name="ccedilla#0" unicode="&#xe7;" horiz-adv-x="480" d="M300 -10 Q228 -10 173 19 Q118 48 86.5 109 Q55 170 55 265 Q55 364 88 426 Q121 488 177.5 517 Q234 546 306 546 Q347 546 385 537.5 Q423 529 447 517 L420 444 Q396 453 364 461 Q332 469 304 469 Q146 469 146 266 Q146 169 184.5 117.5 Q223 66 299 66 Q343 66 376.5 75 Q410 84 438 97 L438 19 Q411 5 378.5 -2.5 Q346 -10 300 -10 Z M382 -139 Q382 -187 345 -213.5 Q308 -240 234 -240 Q202 -240 184 -235 L184 -180 Q193 -182 208 -183.5 Q223 -185 237 -185 Q273 -185 292 -175.5 Q311 -166 311 -141 Q311 -115 284.5 -103 Q258 -91 220 -86 L263 0 L321 0 L295 -53 Q331 -61 356.5 -81 Q382 -101 382 -139 Z " />
<glyph glyph-name="egrave#0" unicode="&#xe8;" horiz-adv-x="564" d="M292 546 Q360 546 410 516 Q460 486 486.5 431.5 Q513 377 513 304 L513 251 L146 251 Q148 160 192.5 112.5 Q237 65 317 65 Q368 65 407.5 74.5 Q447 84 489 102 L489 25 Q448 7 408 -1.5 Q368 -10 313 -10 Q237 -10 178.5 21 Q120 52 87.5 113 Q55 174 55 264 Q55 352 84.5 415 Q114 478 167.5 512 Q221 546 292 546 Z M291 474 Q228 474 191.5 433.5 Q155 393 148 321 L421 321 Q420 389 389 431.5 Q358 474 291 474 Z M259 766 Q270 744 286.5 716.5 Q303 689 321.5 662.5 Q340 636 355 618 L355 606 L296 606 Q273 624 244 652.5 Q215 681 190.5 709.5 Q166 738 154 756 L154 766 L259 766 Z " />
<glyph glyph-name="eacute#0" unicode="&#xe9;" horiz-adv-x="564" d="M292 546 Q360 546 410 516 Q460 486 486.5 431.5 Q513 377 513 304 L513 251 L146 251 Q148 160 192.5 112.5 Q237 65 317 65 Q368 65 407.5 74.5 Q447 84 489 102 L489 25 Q448 7 408 -1.5 Q368 -10 313 -10 Q237 -10 178.5 21 Q120 52 87.5 113 Q55 174 55 264 Q55 352 84.5 415 Q114 478 167.5 512 Q221 546 292 546 Z M291 474 Q228 474 191.5 433.5 Q155 393 148 321 L421 321 Q420 389 389 431.5 Q358 474 291 474 Z M426 766 L426 756 Q414 738 389 709.5 Q364 681 335 652.5 Q306 624 283 606 L225 606 L225 618 Q240 636 257.5 662.5 Q275 689 292 716.5 Q309 744 320 766 L426 766 Z " />
<glyph glyph-name="ecircumflex#0" unicode="&#xea;" horiz-adv-x="564" d="M292 546 Q360 546 410 516 Q460 486 486.5 431.5 Q513 377 513 304 L513 251 L146 251 Q148 160 192.5 112.5 Q237 65 317 65 Q368 65 407.5 74.5 Q447 84 489 102 L489 25 Q448 7 408 -1.5 Q368 -10 313 -10 Q237 -10 178.5 21 Q120 52 87.5 113 Q55 174 55 264 Q55 352 84.5 415 Q114 478 167.5 512 Q221 546 292 546 Z M291 474 Q228 474 191.5 433.5 Q155 393 148 321 L421 321 Q420 389 389 431.5 Q358 474 291 474 Z M331 766 Q343 744 365.5 716.5 Q388 689 412.5 662.5 Q437 636 456 617 L456 606 L394 606 Q368 622 340 645.5 Q312 669 285 696 Q258 669 231 646 Q204 623 178 606 L118 606 L118 617 Q136 637 160 663 Q184 689 206 716.5 Q228 744 241 766 L331 766 Z " />
<glyph glyph-name="edieresis#0" unicode="&#xeb;" horiz-adv-x="564" d="M292 546 Q360 546 410 516 Q460 486 486.5 431.5 Q513 377 513 304 L513 251 L146 251 Q148 160 192.5 112.5 Q237 65 317 65 Q368 65 407.5 74.5 Q447 84 489 102 L489 25 Q448 7 408 -1.5 Q368 -10 313 -10 Q237 -10 178.5 21 Q120 52 87.5 113 Q55 174 55 264 Q55 352 84.5 415 Q114 478 167.5 512 Q221 546 292 546 Z M291 474 Q228 474 191.5 433.5 Q155 393 148 321 L421 321 Q420 389 389 431.5 Q358 474 291 474 Z M144 681 Q144 707 158 718.5 Q172 730 191 730 Q210 730 224 718.5 Q238 707 238 681 Q238 656 224 643.5 Q210 631 191 631 Q172 631 158 643.5 Q144 656 144 681 Z M332 681 Q332 707 345.5 718.5 Q359 730 378 730 Q397 730 411 718.5 Q425 707 425 681 Q425 656 411 643.5 Q397 631 378 631 Q359 631 345.5 643.5 Q332 656 332 681 Z " />
<glyph glyph-name="igrave#0" unicode="&#xec;" horiz-adv-x="258" d="M173 0 L85 0 L85 536 L173 536 L173 0 Z M103 766 Q114 744 130.5 716.5 Q147 689 165.5 662.5 Q184 636 199 618 L199 606 L140 606 Q117 624 88 652.5 Q59 681 34.5 709.5 Q10 738 -2 756 L-2 766 L103 766 Z " />
<glyph glyph-name="iacute#0" unicode="&#xed;" horiz-adv-x="258" d="M173 0 L85 0 L85 536 L173 536 L173 0 Z M270 766 L270 756 Q258 738 233 709.5 Q208 681 179 652.5 Q150 624 127 606 L69 606 L69 618 Q84 636 101.5 662.5 Q119 689 136 716.5 Q153 744 164 766 L270 766 Z " />
<glyph glyph-name="icircumflex#0" unicode="&#xee;" horiz-adv-x="258" d="M173 0 L85 0 L85 536 L173 536 L173 0 Z M175 766 Q187 744 209.5 716.5 Q232 689 256.5 662.5 Q281 636 300 617 L300 606 L238 606 Q212 622 184 645.5 Q156 669 129 696 Q102 669 75 646 Q48 623 22 606 L-38 606 L-38 617 Q-20 637 4 663 Q28 689 50 716.5 Q72 744 85 766 L175 766 Z " />
<glyph glyph-name="idieresis#0" unicode="&#xef;" horiz-adv-x="258" d="M173 0 L85 0 L85 536 L173 536 L173 0 Z M-12 681 Q-12 707 2 718.5 Q16 730 35 730 Q54 730 68 718.5 Q82 707 82 681 Q82 656 68 643.5 Q54 631 35 631 Q16 631 2 643.5 Q-12 656 -12 681 Z M176 681 Q176 707 189.5 718.5 Q203 730 222 730 Q241 730 255 718.5 Q269 707 269 681 Q269 656 255 643.5 Q241 631 222 631 Q203 631 189.5 643.5 Q176 656 176 681 Z " />
<glyph glyph-name="eth#0" unicode="&#xf0;" horiz-adv-x="605" d="M216 765 Q248 750 280.5 732 Q313 714 342 693 L457 760 L495 706 L396 649 Q464 585 507.5 491 Q551 397 551 275 Q551 133 484 61.5 Q417 -10 301 -10 Q229 -10 173.5 19.5 Q118 49 86.5 103.5 Q55 158 55 233 Q55 345 118.5 409 Q182 473 290 473 Q343 473 382.5 459 Q422 445 446 415 L450 417 Q434 474 401 522 Q368 570 326 608 L196 533 L158 588 L270 652 Q249 666 226 679.5 Q203 693 180 705 L216 765 Z M303 402 Q219 402 181.5 357.5 Q144 313 144 230 Q144 157 182 109.5 Q220 62 303 62 Q386 62 424 110.5 Q462 159 462 251 Q462 313 423 357.5 Q384 402 303 402 Z " />
<glyph glyph-name="ntilde#0" unicode="&#xf1;" horiz-adv-x="618" d="M343 546 Q439 546 488 499.5 Q537 453 537 349 L537 0 L450 0 L450 343 Q450 472 330 472 Q241 472 207 422 Q173 372 173 278 L173 0 L85 0 L85 536 L156 536 L169 463 L174 463 Q200 505 246 525.5 Q292 546 343 546 Z M125 606 Q131 665 159.5 699.5 Q188 734 235 734 Q265 734 291.5 719.5 Q318 705 342 691 Q366 677 387 677 Q410 677 422.5 691.5 Q435 706 442 735 L492 735 Q486 677 458 642 Q430 607 383 607 Q355 607 328.5 621 Q302 635 277.5 649.5 Q253 664 231 664 Q207 664 195 649.5 Q183 635 176 606 L125 606 Z " />
<glyph glyph-name="ograve#0" unicode="&#xf2;" horiz-adv-x="605" d="M551 269 Q551 136 483.5 63 Q416 -10 301 -10 Q230 -10 174.5 22.5 Q119 55 87 117.5 Q55 180 55 269 Q55 402 122 474 Q189 546 304 546 Q377 546 432.5 513.5 Q488 481 519.5 419.5 Q551 358 551 269 Z M146 269 Q146 174 183.5 118.5 Q221 63 303 63 Q384 63 422 118.5 Q460 174 460 269 Q460 364 422 418 Q384 472 302 472 Q220 472 183 418 Q146 364 146 269 Z M277 766 Q288 744 304.5 716.5 Q321 689 339.5 662.5 Q358 636 373 618 L373 606 L314 606 Q291 624 262 652.5 Q233 681 208.5 709.5 Q184 738 172 756 L172 766 L277 766 Z " />
<glyph glyph-name="oacute#0" unicode="&#xf3;" horiz-adv-x="605" d="M551 269 Q551 136 483.5 63 Q416 -10 301 -10 Q230 -10 174.5 22.5 Q119 55 87 117.5 Q55 180 55 269 Q55 402 122 474 Q189 546 304 546 Q377 546 432.5 513.5 Q488 481 519.5 419.5 Q551 358 551 269 Z M146 269 Q146 174 183.5 118.5 Q221 63 303 63 Q384 63 422 118.5 Q460 174 460 269 Q460 364 422 418 Q384 472 302 472 Q220 472 183 418 Q146 364 146 269 Z M444 766 L444 756 Q432 738 407 709.5 Q382 681 353 652.5 Q324 624 301 606 L243 606 L243 618 Q258 636 275.5 662.5 Q293 689 310 716.5 Q327 744 338 766 L444 766 Z " />
<glyph glyph-name="ocircumflex#0" unicode="&#xf4;" horiz-adv-x="605" d="M551 269 Q551 136 483.5 63 Q416 -10 301 -10 Q230 -10 174.5 22.5 Q119 55 87 117.5 Q55 180 55 269 Q55 402 122 474 Q189 546 304 546 Q377 546 432.5 513.5 Q488 481 519.5 419.5 Q551 358 551 269 Z M146 269 Q146 174 183.5 118.5 Q221 63 303 63 Q384 63 422 118.5 Q460 174 460 269 Q460 364 422 418 Q384 472 302 472 Q220 472 183 418 Q146 364 146 269 Z M349 766 Q361 744 383.5 716.5 Q406 689 430.5 662.5 Q455 636 474 617 L474 606 L412 606 Q386 622 358 645.5 Q330 669 303 696 Q276 669 249 646 Q222 623 196 606 L136 606 L136 617 Q154 637 178 663 Q202 689 224 716.5 Q246 744 259 766 L349 766 Z " />
<glyph glyph-name="otilde#0" unicode="&#xf5;" horiz-adv-x="605" d="M551 269 Q551 136 483.5 63 Q416 -10 301 -10 Q230 -10 174.5 22.5 Q119 55 87 117.5 Q55 180 55 269 Q55 402 122 474 Q189 546 304 546 Q377 546 432.5 513.5 Q488 481 519.5 419.5 Q551 358 551 269 Z M146 269 Q146 174 183.5 118.5 Q221 63 303 63 Q384 63 422 118.5 Q460 174 460 269 Q460 364 422 418 Q384 472 302 472 Q220 472 183 418 Q146 364 146 269 Z M119 606 Q125 665 153.5 699.5 Q182 734 229 734 Q259 734 285.5 719.5 Q312 705 336 691 Q360 677 381 677 Q404 677 416.5 691.5 Q429 706 436 735 L486 735 Q480 677 452 642 Q424 607 377 607 Q349 607 322.5 621 Q296 635 271.5 649.5 Q247 664 225 664 Q201 664 189 649.5 Q177 635 170 606 L119 606 Z " />
<glyph glyph-name="odieresis#0" unicode="&#xf6;" horiz-adv-x="605" d="M551 269 Q551 136 483.5 63 Q416 -10 301 -10 Q230 -10 174.5 22.5 Q119 55 87 117.5 Q55 180 55 269 Q55 402 122 474 Q189 546 304 546 Q377 546 432.5 513.5 Q488 481 519.5 419.5 Q551 358 551 269 Z M146 269 Q146 174 183.5 118.5 Q221 63 303 63 Q384 63 422 118.5 Q460 174 460 269 Q460 364 422 418 Q384 472 302 472 Q220 472 183 418 Q146 364 146 269 Z M162 681 Q162 707 176 718.5 Q190 730 209 730 Q228 730 242 718.5 Q256 707 256 681 Q256 656 242 643.5 Q228 631 209 631 Q190 631 176 643.5 Q162 656 162 681 Z M350 681 Q350 707 363.5 718.5 Q377 730 396 730 Q415 730 429 718.5 Q443 707 443 681 Q443 656 429 643.5 Q415 631 396 631 Q377 631 363.5 643.5 Q350 656 350 681 Z " />
<glyph glyph-name="divide#0" unicode="&#xf7;" horiz-adv-x="572" d="M285 462 Q262 462 245.5 476.5 Q229 491 229 523 Q229 557 245.5 570 Q262 583 285 583 Q308 583 324 570 Q340 557 340 523 Q340 491 324 476.5 Q308 462 285 462 Z M50 317 L50 388 L521 388 L521 317 L50 317 Z M285 121 Q262 121 245.5 135.5 Q229 150 229 182 Q229 216 245.5 229 Q262 242 285 242 Q308 242 324 229 Q340 216 340 182 Q340 150 324 135.5 Q308 121 285 121 Z " />
<glyph glyph-name="oslash#0" unicode="&#xf8;" horiz-adv-x="605" d="M551 269 Q551 136 483.5 63 Q416 -10 301 -10 Q228 -10 172 23 L132 -33 L74 6 L119 68 Q88 104 71.5 154.5 Q55 205 55 269 Q55 402 122 474 Q189 546 304 546 Q377 546 435 510 L474 566 L533 528 L488 465 Q517 430 534 380.5 Q551 331 551 269 Z M146 269 Q146 231 151.5 198.5 Q157 166 170 141 L390 447 Q354 472 302 472 Q220 472 183 418 Q146 364 146 269 Z M460 269 Q460 343 437 392 L217 86 Q251 63 303 63 Q384 63 422 118.5 Q460 174 460 269 Z " />
<glyph glyph-name="ugrave#0" unicode="&#xf9;" horiz-adv-x="618" d="M533 536 L533 0 L461 0 L448 71 L444 71 Q418 29 372 9.5 Q326 -10 274 -10 Q177 -10 128 36.5 Q79 83 79 185 L79 536 L168 536 L168 191 Q168 63 287 63 Q376 63 410.5 113 Q445 163 445 257 L445 536 L533 536 Z M283 766 Q294 744 310.5 716.5 Q327 689 345.5 662.5 Q364 636 379 618 L379 606 L320 606 Q297 624 268 652.5 Q239 681 214.5 709.5 Q190 738 178 756 L178 766 L283 766 Z " />
<glyph glyph-name="uacute#0" unicode="&#xfa;" horiz-adv-x="618" d="M533 536 L533 0 L461 0 L448 71 L444 71 Q418 29 372 9.5 Q326 -10 274 -10 Q177 -10 128 36.5 Q79 83 79 185 L79 536 L168 536 L168 191 Q168 63 287 63 Q376 63 410.5 113 Q445 163 445 257 L445 536 L533 536 Z M450 766 L450 756 Q438 738 413 709.5 Q388 681 359 652.5 Q330 624 307 606 L249 606 L249 618 Q264 636 281.5 662.5 Q299 689 316 716.5 Q333 744 344 766 L450 766 Z " />
<glyph glyph-name="ucircumflex#0" unicode="&#xfb;" horiz-adv-x="618" d="M533 536 L533 0 L461 0 L448 71 L444 71 Q418 29 372 9.5 Q326 -10 274 -10 Q177 -10 128 36.5 Q79 83 79 185 L79 536 L168 536 L168 191 Q168 63 287 63 Q376 63 410.5 113 Q445 163 445 257 L445 536 L533 536 Z M355 766 Q367 744 389.5 716.5 Q412 689 436.5 662.5 Q461 636 480 617 L480 606 L418 606 Q392 622 364 645.5 Q336 669 309 696 Q282 669 255 646 Q228 623 202 606 L142 606 L142 617 Q160 637 184 663 Q208 689 230 716.5 Q252 744 265 766 L355 766 Z " />
<glyph glyph-name="udieresis#0" unicode="&#xfc;" horiz-adv-x="618" d="M533 536 L533 0 L461 0 L448 71 L444 71 Q418 29 372 9.5 Q326 -10 274 -10 Q177 -10 128 36.5 Q79 83 79 185 L79 536 L168 536 L168 191 Q168 63 287 63 Q376 63 410.5 113 Q445 163 445 257 L445 536 L533 536 Z M168 681 Q168 707 182 718.5 Q196 730 215 730 Q234 730 248 718.5 Q262 707 262 681 Q262 656 248 643.5 Q234 631 215 631 Q196 631 182 643.5 Q168 656 168 681 Z M356 681 Q356 707 369.5 718.5 Q383 730 402 730 Q421 730 435 718.5 Q449 707 449 681 Q449 656 435 643.5 Q421 631 402 631 Q383 631 369.5 643.5 Q356 656 356 681 Z " />
<glyph glyph-name="yacute#0" unicode="&#xfd;" horiz-adv-x="510" d="M1 536 L95 536 L211 231 Q226 191 238 154.5 Q250 118 256 85 L260 85 Q266 110 279 150.5 Q292 191 306 232 L415 536 L510 536 L279 -74 Q251 -150 206.5 -195 Q162 -240 84 -240 Q60 -240 42 -237.5 Q24 -235 11 -232 L11 -162 Q22 -164 37.5 -166 Q53 -168 70 -168 Q116 -168 144.5 -142 Q173 -116 189 -73 L217 -2 L1 536 Z M396 766 L396 756 Q384 738 359 709.5 Q334 681 305 652.5 Q276 624 253 606 L195 606 L195 618 Q210 636 227.5 662.5 Q245 689 262 716.5 Q279 744 290 766 L396 766 Z " />
<glyph glyph-name="thorn#0" unicode="&#xfe;" horiz-adv-x="615" d="M560 269 Q560 132 499.5 61 Q439 -10 340 -10 Q277 -10 237 13 Q197 36 173 68 L167 68 Q168 61 169.5 45 Q171 29 172 12 Q173 -5 173 -16 L173 -240 L85 -240 L85 760 L173 760 L173 536 Q173 522 172 499.5 Q171 477 170 464 L174 464 Q198 498 237 522 Q276 546 340 546 Q439 546 499.5 476 Q560 406 560 269 Z M469 270 Q469 371 434 421.5 Q399 472 325 472 Q243 472 209 426 Q175 380 173 288 L173 269 Q173 170 205.5 116.5 Q238 63 326 63 Q400 63 434.5 116.5 Q469 170 469 270 Z " />
<glyph glyph-name="ydieresis#0" unicode="&#xff;" horiz-adv-x="510" d="M1 536 L95 536 L211 231 Q226 191 238 154.5 Q250 118 256 85 L260 85 Q266 110 279 150.5 Q292 191 306 232 L415 536 L510 536 L279 -74 Q251 -150 206.5 -195 Q162 -240 84 -240 Q60 -240 42 -237.5 Q24 -235 11 -232 L11 -162 Q22 -164 37.5 -166 Q53 -168 70 -168 Q116 -168 144.5 -142 Q173 -116 189 -73 L217 -2 L1 536 Z M114 681 Q114 707 128 718.5 Q142 730 161 730 Q180 730 194 718.5 Q208 707 208 681 Q208 656 194 643.5 Q180 631 161 631 Q142 631 128 643.5 Q114 656 114 681 Z M302 681 Q302 707 315.5 718.5 Q329 730 348 730 Q367 730 381 718.5 Q395 707 395 681 Q395 656 381 643.5 Q367 631 348 631 Q329 631 315.5 643.5 Q302 656 302 681 Z " />
<glyph glyph-name="Amacron#0" unicode="&#x100;" horiz-adv-x="639" d="M545 0 L459 221 L176 221 L91 0 L0 0 L279 717 L360 717 L638 0 L545 0 Z M432 301 L352 517 Q349 525 342 546 Q335 567 328.5 589.5 Q322 612 318 624 Q311 593 302 563.5 Q293 534 287 517 L206 301 L432 301 Z M466 855 L466 784 L169 784 L169 855 L466 855 Z " />
<glyph glyph-name="amacron#0" unicode="&#x101;" horiz-adv-x="561" d="M288 545 Q386 545 433 502 Q480 459 480 365 L480 0 L416 0 L399 76 L395 76 Q360 32 321.5 11 Q283 -10 215 -10 Q142 -10 94 28.5 Q46 67 46 149 Q46 229 109 272.5 Q172 316 303 320 L394 323 L394 355 Q394 422 365 448 Q336 474 283 474 Q241 474 203 461.5 Q165 449 132 433 L105 499 Q140 518 188 531.5 Q236 545 288 545 Z M393 262 L314 259 Q214 255 175.5 227 Q137 199 137 148 Q137 103 164.5 82 Q192 61 235 61 Q303 61 348 98.5 Q393 136 393 214 L393 262 Z M429 677 L429 606 L132 606 L132 677 L429 677 Z " />
<glyph glyph-name="Abreve#0" unicode="&#x102;" horiz-adv-x="639" d="M545 0 L459 221 L176 221 L91 0 L0 0 L279 717 L360 717 L638 0 L545 0 Z M432 301 L352 517 Q349 525 342 546 Q335 567 328.5 589.5 Q322 612 318 624 Q311 593 302 563.5 Q293 534 287 517 L206 301 L432 301 Z M478 918 Q473 858 432.5 821 Q392 784 320 784 Q246 784 208.5 820.5 Q171 857 167 918 L221 918 Q226 877 251 866 Q276 855 322 855 Q361 855 389.5 867 Q418 879 423 918 L478 918 Z " />
<glyph glyph-name="abreve#0" unicode="&#x103;" horiz-adv-x="561" d="M288 545 Q386 545 433 502 Q480 459 480 365 L480 0 L416 0 L399 76 L395 76 Q360 32 321.5 11 Q283 -10 215 -10 Q142 -10 94 28.5 Q46 67 46 149 Q46 229 109 272.5 Q172 316 303 320 L394 323 L394 355 Q394 422 365 448 Q336 474 283 474 Q241 474 203 461.5 Q165 449 132 433 L105 499 Q140 518 188 531.5 Q236 545 288 545 Z M393 262 L314 259 Q214 255 175.5 227 Q137 199 137 148 Q137 103 164.5 82 Q192 61 235 61 Q303 61 348 98.5 Q393 136 393 214 L393 262 Z M441 740 Q436 680 395.5 643 Q355 606 283 606 Q209 606 171.5 642.5 Q134 679 130 740 L184 740 Q189 699 214 688 Q239 677 285 677 Q324 677 352.5 689 Q381 701 386 740 L441 740 Z " />
<glyph glyph-name="Aogonek#0" unicode="&#x104;" horiz-adv-x="639" d="M545 0 L459 221 L176 221 L91 0 L0 0 L279 717 L360 717 L638 0 L545 0 Z M432 301 L352 517 Q349 525 342 546 Q335 567 328.5 589.5 Q322 612 318 624 Q311 593 302 563.5 Q293 534 287 517 L206 301 L432 301 Z M545 -116 Q545 -161 590 -161 Q607 -161 618.5 -158.5 Q630 -156 638 -155 L638 -211 Q624 -215 610 -217.5 Q596 -220 576 -220 Q523 -220 498 -195 Q473 -170 473 -126 Q473 -97 487.5 -70 Q502 -43 523.5 -21 Q545 1 565 15 L613 0 Q579 -32 562 -58.5 Q545 -85 545 -116 Z " />
<glyph glyph-name="aogonek#0" unicode="&#x105;" horiz-adv-x="561" d="M288 545 Q386 545 433 502 Q480 459 480 365 L480 0 L416 0 L399 76 L395 76 Q360 32 321.5 11 Q283 -10 215 -10 Q142 -10 94 28.5 Q46 67 46 149 Q46 229 109 272.5 Q172 316 303 320 L394 323 L394 355 Q394 422 365 448 Q336 474 283 474 Q241 474 203 461.5 Q165 449 132 433 L105 499 Q140 518 188 531.5 Q236 545 288 545 Z M393 262 L314 259 Q214 255 175.5 227 Q137 199 137 148 Q137 103 164.5 82 Q192 61 235 61 Q303 61 348 98.5 Q393 136 393 214 L393 262 Z M412 -116 Q412 -161 457 -161 Q474 -161 485.5 -158.5 Q497 -156 505 -155 L505 -211 Q491 -215 477 -217.5 Q463 -220 443 -220 Q390 -220 365 -195 Q340 -170 340 -126 Q340 -97 354.5 -70 Q369 -43 390.5 -21 Q412 1 432 15 L480 0 Q446 -32 429 -58.5 Q412 -85 412 -116 Z " />
<glyph glyph-name="Cacute#0" unicode="&#x106;" horiz-adv-x="632" d="M403 645 Q288 645 222 568 Q156 491 156 357 Q156 224 217.5 146.5 Q279 69 402 69 Q449 69 491 77 Q533 85 573 97 L573 19 Q533 4 490.5 -3 Q448 -10 389 -10 Q280 -10 207 35 Q134 80 97.5 163 Q61 246 61 358 Q61 466 100.5 548.5 Q140 631 217 677.5 Q294 724 404 724 Q517 724 601 682 L565 606 Q532 621 491.5 633 Q451 645 403 645 Z M521 944 L521 934 Q509 916 484 887.5 Q459 859 430 830.5 Q401 802 378 784 L320 784 L320 796 Q335 814 352.5 840.5 Q370 867 387 894.5 Q404 922 415 944 L521 944 Z " />
<glyph glyph-name="cacute#0" unicode="&#x107;" horiz-adv-x="480" d="M300 -10 Q228 -10 173 19 Q118 48 86.5 109 Q55 170 55 265 Q55 364 88 426 Q121 488 177.5 517 Q234 546 306 546 Q347 546 385 537.5 Q423 529 447 517 L420 444 Q396 453 364 461 Q332 469 304 469 Q146 469 146 266 Q146 169 184.5 117.5 Q223 66 299 66 Q343 66 376.5 75 Q410 84 438 97 L438 19 Q411 5 378.5 -2.5 Q346 -10 300 -10 Z M425 766 L425 756 Q413 738 388 709.5 Q363 681 334 652.5 Q305 624 282 606 L224 606 L224 618 Q239 636 256.5 662.5 Q274 689 291 716.5 Q308 744 319 766 L425 766 Z " />
<glyph glyph-name="Ccircumflex#0" unicode="&#x108;" horiz-adv-x="632" d="M403 645 Q288 645 222 568 Q156 491 156 357 Q156 224 217.5 146.5 Q279 69 402 69 Q449 69 491 77 Q533 85 573 97 L573 19 Q533 4 490.5 -3 Q448 -10 389 -10 Q280 -10 207 35 Q134 80 97.5 163 Q61 246 61 358 Q61 466 100.5 548.5 Q140 631 217 677.5 Q294 724 404 724 Q517 724 601 682 L565 606 Q532 621 491.5 633 Q451 645 403 645 Z M426 944 Q438 922 460.5 894.5 Q483 867 507.5 840.5 Q532 814 551 795 L551 784 L489 784 Q463 800 435 823.5 Q407 847 380 874 Q353 847 326 824 Q299 801 273 784 L213 784 L213 795 Q231 815 255 841 Q279 867 301 894.5 Q323 922 336 944 L426 944 Z " />
<glyph glyph-name="ccircumflex#0" unicode="&#x109;" horiz-adv-x="480" d="M300 -10 Q228 -10 173 19 Q118 48 86.5 109 Q55 170 55 265 Q55 364 88 426 Q121 488 177.5 517 Q234 546 306 546 Q347 546 385 537.5 Q423 529 447 517 L420 444 Q396 453 364 461 Q332 469 304 469 Q146 469 146 266 Q146 169 184.5 117.5 Q223 66 299 66 Q343 66 376.5 75 Q410 84 438 97 L438 19 Q411 5 378.5 -2.5 Q346 -10 300 -10 Z M330 766 Q342 744 364.5 716.5 Q387 689 411.5 662.5 Q436 636 455 617 L455 606 L393 606 Q367 622 339 645.5 Q311 669 284 696 Q257 669 230 646 Q203 623 177 606 L117 606 L117 617 Q135 637 159 663 Q183 689 205 716.5 Q227 744 240 766 L330 766 Z " />
<glyph glyph-name="Cdot#0" unicode="&#x10a;" horiz-adv-x="632" d="M403 645 Q288 645 222 568 Q156 491 156 357 Q156 224 217.5 146.5 Q279 69 402 69 Q449 69 491 77 Q533 85 573 97 L573 19 Q533 4 490.5 -3 Q448 -10 389 -10 Q280 -10 207 35 Q134 80 97.5 163 Q61 246 61 358 Q61 466 100.5 548.5 Q140 631 217 677.5 Q294 724 404 724 Q517 724 601 682 L565 606 Q532 621 491.5 633 Q451 645 403 645 Z M383 915 Q403 915 418.5 901.5 Q434 888 434 859 Q434 831 418.5 817 Q403 803 383 803 Q361 803 346 817 Q331 831 331 859 Q331 888 346 901.5 Q361 915 383 915 Z " />
<glyph glyph-name="cdot#0" unicode="&#x10b;" horiz-adv-x="480" d="M300 -10 Q228 -10 173 19 Q118 48 86.5 109 Q55 170 55 265 Q55 364 88 426 Q121 488 177.5 517 Q234 546 306 546 Q347 546 385 537.5 Q423 529 447 517 L420 444 Q396 453 364 461 Q332 469 304 469 Q146 469 146 266 Q146 169 184.5 117.5 Q223 66 299 66 Q343 66 376.5 75 Q410 84 438 97 L438 19 Q411 5 378.5 -2.5 Q346 -10 300 -10 Z M287 737 Q307 737 322.5 723.5 Q338 710 338 681 Q338 653 322.5 639 Q307 625 287 625 Q265 625 250 639 Q235 653 235 681 Q235 710 250 723.5 Q265 737 287 737 Z " />
<glyph glyph-name="Ccaron#0" unicode="&#x10c;" horiz-adv-x="632" d="M403 645 Q288 645 222 568 Q156 491 156 357 Q156 224 217.5 146.5 Q279 69 402 69 Q449 69 491 77 Q533 85 573 97 L573 19 Q533 4 490.5 -3 Q448 -10 389 -10 Q280 -10 207 35 Q134 80 97.5 163 Q61 246 61 358 Q61 466 100.5 548.5 Q140 631 217 677.5 Q294 724 404 724 Q517 724 601 682 L565 606 Q532 621 491.5 633 Q451 645 403 645 Z M334 784 Q321 807 299 833.5 Q277 860 253 886 Q229 912 211 931 L211 944 L271 944 Q297 927 325 903 Q353 879 378 852 Q405 879 433 903 Q461 927 487 944 L549 944 L549 931 Q530 912 505.5 886 Q481 860 458.5 833.5 Q436 807 424 784 L334 784 Z " />
<glyph glyph-name="ccaron#0" unicode="&#x10d;" horiz-adv-x="480" d="M300 -10 Q228 -10 173 19 Q118 48 86.5 109 Q55 170 55 265 Q55 364 88 426 Q121 488 177.5 517 Q234 546 306 546 Q347 546 385 537.5 Q423 529 447 517 L420 444 Q396 453 364 461 Q332 469 304 469 Q146 469 146 266 Q146 169 184.5 117.5 Q223 66 299 66 Q343 66 376.5 75 Q410 84 438 97 L438 19 Q411 5 378.5 -2.5 Q346 -10 300 -10 Z M238 606 Q225 629 203 655.5 Q181 682 157 708 Q133 734 115 753 L115 766 L175 766 Q201 749 229 725 Q257 701 282 674 Q309 701 337 725 Q365 749 391 766 L453 766 L453 753 Q434 734 409.5 708 Q385 682 362.5 655.5 Q340 629 328 606 L238 606 Z " />
<glyph glyph-name="Dcaron#0" unicode="&#x10e;" horiz-adv-x="730" d="M669 364 Q669 183 570.5 91.5 Q472 0 296 0 L97 0 L97 714 L317 714 Q424 714 503.5 674 Q583 634 626 556.5 Q669 479 669 364 Z M574 361 Q574 504 503.5 570.5 Q433 637 304 637 L187 637 L187 77 L284 77 Q574 77 574 361 Z M315 784 Q302 807 280 833.5 Q258 860 234 886 Q210 912 192 931 L192 944 L252 944 Q278 927 306 903 Q334 879 359 852 Q386 879 414 903 Q442 927 468 944 L530 944 L530 931 Q511 912 486.5 886 Q462 860 439.5 833.5 Q417 807 405 784 L315 784 Z " />
<glyph glyph-name="dcaron#0" unicode="&#x10f;" horiz-adv-x="615" d="M275 -10 Q175 -10 115 59.5 Q55 129 55 267 Q55 405 115.5 475.5 Q176 546 276 546 Q338 546 377.5 523 Q417 500 442 467 L448 467 Q447 480 444.5 505.5 Q442 531 442 546 L442 760 L530 760 L530 0 L459 0 L446 72 L442 72 Q418 38 378 14 Q338 -10 275 -10 Z M289 63 Q374 63 408.5 109.5 Q443 156 443 250 L443 266 Q443 366 410 419.5 Q377 473 288 473 Q217 473 181.5 416.5 Q146 360 146 265 Q146 169 181.5 116 Q217 63 289 63 Z M688 760 L688 751 Q684 733 672.5 706 Q661 679 646 650.5 Q631 622 616 600 L568 600 L568 612 Q574 631 581 657.5 Q588 684 593 711.5 Q598 739 601 760 L688 760 Z " />
<glyph glyph-name="Dcroat#0" unicode="&#x110;" horiz-adv-x="730" d="M317 714 Q424 714 503 674 Q582 634 625.5 556.5 Q669 479 669 364 Q669 183 570.5 91.5 Q472 0 295 0 L104 0 L104 314 L30 314 L30 392 L104 392 L104 714 L317 714 Z M304 637 L194 637 L194 392 L372 392 L372 314 L194 314 L194 77 L284 77 Q574 77 574 361 Q574 504 503 570.5 Q432 637 304 637 Z " />
<glyph glyph-name="dcroat#0" unicode="&#x111;" horiz-adv-x="617" d="M275 -10 Q175 -10 115 59.5 Q55 129 55 265 Q55 405 115.5 474 Q176 543 275 543 Q338 543 377.5 520 Q417 497 442 464 L448 464 Q446 477 444 502.5 Q442 528 442 544 L442 605 L229 605 L229 671 L442 671 L442 760 L530 760 L530 671 L606 671 L606 605 L530 605 L530 0 L458 0 L445 72 L441 72 Q417 38 377 14 Q337 -10 275 -10 Z M290 63 Q374 63 408.5 109 Q443 155 443 248 L443 265 Q443 366 410 418 Q377 470 288 470 Q217 470 182 415 Q147 360 147 264 Q147 168 182 115.5 Q217 63 290 63 Z " />
<glyph glyph-name="Emacron#0" unicode="&#x112;" horiz-adv-x="556" d="M496 0 L97 0 L97 714 L496 714 L496 635 L187 635 L187 412 L478 412 L478 334 L187 334 L187 79 L496 79 L496 0 Z M453 855 L453 784 L156 784 L156 855 L453 855 Z " />
<glyph glyph-name="emacron#0" unicode="&#x113;" horiz-adv-x="564" d="M292 546 Q360 546 410 516 Q460 486 486.5 431.5 Q513 377 513 304 L513 251 L146 251 Q148 160 192.5 112.5 Q237 65 317 65 Q368 65 407.5 74.5 Q447 84 489 102 L489 25 Q448 7 408 -1.5 Q368 -10 313 -10 Q237 -10 178.5 21 Q120 52 87.5 113 Q55 174 55 264 Q55 352 84.5 415 Q114 478 167.5 512 Q221 546 292 546 Z M291 474 Q228 474 191.5 433.5 Q155 393 148 321 L421 321 Q420 389 389 431.5 Q358 474 291 474 Z M433 677 L433 606 L136 606 L136 677 L433 677 Z " />
<glyph glyph-name="Ebreve#0" unicode="&#x114;" horiz-adv-x="556" d="M496 0 L97 0 L97 714 L496 714 L496 635 L187 635 L187 412 L478 412 L478 334 L187 334 L187 79 L496 79 L496 0 Z M465 918 Q460 858 419.5 821 Q379 784 307 784 Q233 784 195.5 820.5 Q158 857 154 918 L208 918 Q213 877 238 866 Q263 855 309 855 Q348 855 376.5 867 Q405 879 410 918 L465 918 Z " />
<glyph glyph-name="ebreve#0" unicode="&#x115;" horiz-adv-x="564" d="M292 546 Q360 546 410 516 Q460 486 486.5 431.5 Q513 377 513 304 L513 251 L146 251 Q148 160 192.5 112.5 Q237 65 317 65 Q368 65 407.5 74.5 Q447 84 489 102 L489 25 Q448 7 408 -1.5 Q368 -10 313 -10 Q237 -10 178.5 21 Q120 52 87.5 113 Q55 174 55 264 Q55 352 84.5 415 Q114 478 167.5 512 Q221 546 292 546 Z M291 474 Q228 474 191.5 433.5 Q155 393 148 321 L421 321 Q420 389 389 431.5 Q358 474 291 474 Z M445 740 Q440 680 399.5 643 Q359 606 287 606 Q213 606 175.5 642.5 Q138 679 134 740 L188 740 Q193 699 218 688 Q243 677 289 677 Q328 677 356.5 689 Q385 701 390 740 L445 740 Z " />
<glyph glyph-name="Edotaccent#0" unicode="&#x116;" horiz-adv-x="556" d="M496 0 L97 0 L97 714 L496 714 L496 635 L187 635 L187 412 L478 412 L478 334 L187 334 L187 79 L496 79 L496 0 Z M308 915 Q328 915 343.5 901.5 Q359 888 359 859 Q359 831 343.5 817 Q328 803 308 803 Q286 803 271 817 Q256 831 256 859 Q256 888 271 901.5 Q286 915 308 915 Z " />
<glyph glyph-name="edotaccent#0" unicode="&#x117;" horiz-adv-x="564" d="M292 546 Q360 546 410 516 Q460 486 486.5 431.5 Q513 377 513 304 L513 251 L146 251 Q148 160 192.5 112.5 Q237 65 317 65 Q368 65 407.5 74.5 Q447 84 489 102 L489 25 Q448 7 408 -1.5 Q368 -10 313 -10 Q237 -10 178.5 21 Q120 52 87.5 113 Q55 174 55 264 Q55 352 84.5 415 Q114 478 167.5 512 Q221 546 292 546 Z M291 474 Q228 474 191.5 433.5 Q155 393 148 321 L421 321 Q420 389 389 431.5 Q358 474 291 474 Z M288 737 Q308 737 323.5 723.5 Q339 710 339 681 Q339 653 323.5 639 Q308 625 288 625 Q266 625 251 639 Q236 653 236 681 Q236 710 251 723.5 Q266 737 288 737 Z " />
<glyph glyph-name="Eogonek#0" unicode="&#x118;" horiz-adv-x="556" d="M496 0 L97 0 L97 714 L496 714 L496 635 L187 635 L187 412 L478 412 L478 334 L187 334 L187 79 L496 79 L496 0 Z M398 -116 Q398 -161 443 -161 Q460 -161 471.5 -158.5 Q483 -156 491 -155 L491 -211 Q477 -215 463 -217.5 Q449 -220 429 -220 Q376 -220 351 -195 Q326 -170 326 -126 Q326 -97 340.5 -70 Q355 -43 376.5 -21 Q398 1 418 15 L466 0 Q432 -32 415 -58.5 Q398 -85 398 -116 Z " />
<glyph glyph-name="eogonek#0" unicode="&#x119;" horiz-adv-x="564" d="M389 -116 Q389 -161 434 -161 Q451 -161 462.5 -158.5 Q474 -156 482 -155 L482 -211 Q468 -215 454 -217.5 Q440 -220 420 -220 Q367 -220 342 -195 Q317 -170 317 -126 Q317 -97 331.5 -70 Q346 -43 367.5 -21 Q389 1 409 15 L489 25 Q449 -7 427 -31 Q405 -55 397 -75 Q389 -95 389 -116 Z M292 546 Q360 546 410 516 Q460 486 486.5 431.5 Q513 377 513 304 L513 251 L146 251 Q148 160 192.5 112.5 Q237 65 317 65 Q368 65 407.5 74.5 Q447 84 489 102 L489 25 Q448 7 408 -1.5 Q368 -10 313 -10 Q237 -10 178.5 21 Q120 52 87.5 113 Q55 174 55 264 Q55 352 84.5 415 Q114 478 167.5 512 Q221 546 292 546 Z M291 474 Q228 474 191.5 433.5 Q155 393 148 321 L421 321 Q420 389 389 431.5 Q358 474 291 474 Z " />
<glyph glyph-name="Ecaron#0" unicode="&#x11a;" horiz-adv-x="556" d="M496 0 L97 0 L97 714 L496 714 L496 635 L187 635 L187 412 L478 412 L478 334 L187 334 L187 79 L496 79 L496 0 Z M259 784 Q246 807 224 833.5 Q202 860 178 886 Q154 912 136 931 L136 944 L196 944 Q222 927 250 903 Q278 879 303 852 Q330 879 358 903 Q386 927 412 944 L474 944 L474 931 Q455 912 430.5 886 Q406 860 383.5 833.5 Q361 807 349 784 L259 784 Z " />
<glyph glyph-name="ecaron#0" unicode="&#x11b;" horiz-adv-x="564" d="M292 546 Q360 546 410 516 Q460 486 486.5 431.5 Q513 377 513 304 L513 251 L146 251 Q148 160 192.5 112.5 Q237 65 317 65 Q368 65 407.5 74.5 Q447 84 489 102 L489 25 Q448 7 408 -1.5 Q368 -10 313 -10 Q237 -10 178.5 21 Q120 52 87.5 113 Q55 174 55 264 Q55 352 84.5 415 Q114 478 167.5 512 Q221 546 292 546 Z M291 474 Q228 474 191.5 433.5 Q155 393 148 321 L421 321 Q420 389 389 431.5 Q358 474 291 474 Z M239 606 Q226 629 204 655.5 Q182 682 158 708 Q134 734 116 753 L116 766 L176 766 Q202 749 230 725 Q258 701 283 674 Q310 701 338 725 Q366 749 392 766 L454 766 L454 753 Q435 734 410.5 708 Q386 682 363.5 655.5 Q341 629 329 606 L239 606 Z " />
<glyph glyph-name="Gcircumflex#0" unicode="&#x11c;" horiz-adv-x="728" d="M407 377 L654 377 L654 27 Q596 8 537 -1 Q478 -10 403 -10 Q292 -10 216 34.5 Q140 79 100.5 161.5 Q61 244 61 357 Q61 469 105 551 Q149 633 231.5 678.5 Q314 724 431 724 Q491 724 544.5 713 Q598 702 644 682 L610 604 Q572 621 524.5 633 Q477 645 426 645 Q298 645 226.5 568 Q155 491 155 357 Q155 272 182.5 206.5 Q210 141 269 104.5 Q328 68 424 68 Q471 68 504 73 Q537 78 564 85 L564 297 L407 297 L407 377 Z M451 944 Q463 922 485.5 894.5 Q508 867 532.5 840.5 Q557 814 576 795 L576 784 L514 784 Q488 800 460 823.5 Q432 847 405 874 Q378 847 351 824 Q324 801 298 784 L238 784 L238 795 Q256 815 280 841 Q304 867 326 894.5 Q348 922 361 944 L451 944 Z " />
<glyph glyph-name="gcircumflex#0" unicode="&#x11d;" horiz-adv-x="615" d="M275 546 Q328 546 370.5 526 Q413 506 443 465 L448 465 L460 536 L530 536 L530 -9 Q530 -124 471.5 -182 Q413 -240 290 -240 Q172 -240 97 -206 L97 -125 Q176 -167 295 -167 Q364 -167 403.5 -126.5 Q443 -86 443 -16 L443 5 Q443 17 444 39.5 Q445 62 446 71 L442 71 Q388 -10 276 -10 Q172 -10 113.5 63 Q55 136 55 267 Q55 395 113.5 470.5 Q172 546 275 546 Z M287 472 Q220 472 183 418.5 Q146 365 146 266 Q146 167 182.5 114.5 Q219 62 289 62 Q370 62 407 105.5 Q444 149 444 246 L444 267 Q444 377 406 424.5 Q368 472 287 472 Z M343 766 Q355 744 377.5 716.5 Q400 689 424.5 662.5 Q449 636 468 617 L468 606 L406 606 Q380 622 352 645.5 Q324 669 297 696 Q270 669 243 646 Q216 623 190 606 L130 606 L130 617 Q148 637 172 663 Q196 689 218 716.5 Q240 744 253 766 L343 766 Z " />
<glyph glyph-name="Gbreve#0" unicode="&#x11e;" horiz-adv-x="728" d="M407 377 L654 377 L654 27 Q596 8 537 -1 Q478 -10 403 -10 Q292 -10 216 34.5 Q140 79 100.5 161.5 Q61 244 61 357 Q61 469 105 551 Q149 633 231.5 678.5 Q314 724 431 724 Q491 724 544.5 713 Q598 702 644 682 L610 604 Q572 621 524.5 633 Q477 645 426 645 Q298 645 226.5 568 Q155 491 155 357 Q155 272 182.5 206.5 Q210 141 269 104.5 Q328 68 424 68 Q471 68 504 73 Q537 78 564 85 L564 297 L407 297 L407 377 Z M565 918 Q560 858 519.5 821 Q479 784 407 784 Q333 784 295.5 820.5 Q258 857 254 918 L308 918 Q313 877 338 866 Q363 855 409 855 Q448 855 476.5 867 Q505 879 510 918 L565 918 Z " />
<glyph glyph-name="gbreve#0" unicode="&#x11f;" horiz-adv-x="615" d="M275 546 Q328 546 370.5 526 Q413 506 443 465 L448 465 L460 536 L530 536 L530 -9 Q530 -124 471.5 -182 Q413 -240 290 -240 Q172 -240 97 -206 L97 -125 Q176 -167 295 -167 Q364 -167 403.5 -126.5 Q443 -86 443 -16 L443 5 Q443 17 444 39.5 Q445 62 446 71 L442 71 Q388 -10 276 -10 Q172 -10 113.5 63 Q55 136 55 267 Q55 395 113.5 470.5 Q172 546 275 546 Z M287 472 Q220 472 183 418.5 Q146 365 146 266 Q146 167 182.5 114.5 Q219 62 289 62 Q370 62 407 105.5 Q444 149 444 246 L444 267 Q444 377 406 424.5 Q368 472 287 472 Z M457 740 Q452 680 411.5 643 Q371 606 299 606 Q225 606 187.5 642.5 Q150 679 146 740 L200 740 Q205 699 230 688 Q255 677 301 677 Q340 677 368.5 689 Q397 701 402 740 L457 740 Z " />
<glyph glyph-name="Gdot#0" unicode="&#x120;" horiz-adv-x="728" d="M407 377 L654 377 L654 27 Q596 8 537 -1 Q478 -10 403 -10 Q292 -10 216 34.5 Q140 79 100.5 161.5 Q61 244 61 357 Q61 469 105 551 Q149 633 231.5 678.5 Q314 724 431 724 Q491 724 544.5 713 Q598 702 644 682 L610 604 Q572 621 524.5 633 Q477 645 426 645 Q298 645 226.5 568 Q155 491 155 357 Q155 272 182.5 206.5 Q210 141 269 104.5 Q328 68 424 68 Q471 68 504 73 Q537 78 564 85 L564 297 L407 297 L407 377 Z M408 915 Q428 915 443.5 901.5 Q459 888 459 859 Q459 831 443.5 817 Q428 803 408 803 Q386 803 371 817 Q356 831 356 859 Q356 888 371 901.5 Q386 915 408 915 Z " />
<glyph glyph-name="gdot#0" unicode="&#x121;" horiz-adv-x="615" d="M275 546 Q328 546 370.5 526 Q413 506 443 465 L448 465 L460 536 L530 536 L530 -9 Q530 -124 471.5 -182 Q413 -240 290 -240 Q172 -240 97 -206 L97 -125 Q176 -167 295 -167 Q364 -167 403.5 -126.5 Q443 -86 443 -16 L443 5 Q443 17 444 39.5 Q445 62 446 71 L442 71 Q388 -10 276 -10 Q172 -10 113.5 63 Q55 136 55 267 Q55 395 113.5 470.5 Q172 546 275 546 Z M287 472 Q220 472 183 418.5 Q146 365 146 266 Q146 167 182.5 114.5 Q219 62 289 62 Q370 62 407 105.5 Q444 149 444 246 L444 267 Q444 377 406 424.5 Q368 472 287 472 Z M300 737 Q320 737 335.5 723.5 Q351 710 351 681 Q351 653 335.5 639 Q320 625 300 625 Q278 625 263 639 Q248 653 248 681 Q248 710 263 723.5 Q278 737 300 737 Z " />
<glyph glyph-name="uni0122#0" unicode="&#x122;" horiz-adv-x="728" d="M407 377 L654 377 L654 27 Q596 8 537 -1 Q478 -10 403 -10 Q292 -10 216 34.5 Q140 79 100.5 161.5 Q61 244 61 357 Q61 469 105 551 Q149 633 231.5 678.5 Q314 724 431 724 Q491 724 544.5 713 Q598 702 644 682 L610 604 Q572 621 524.5 633 Q477 645 426 645 Q298 645 226.5 568 Q155 491 155 357 Q155 272 182.5 206.5 Q210 141 269 104.5 Q328 68 424 68 Q471 68 504 73 Q537 78 564 85 L564 297 L407 297 L407 377 Z M466 -61 L466 -70 Q462 -88 449.5 -115.5 Q437 -143 420.5 -171 Q404 -199 386 -221 L338 -221 L338 -209 Q346 -192 354.5 -165.5 Q363 -139 369.5 -110.5 Q376 -82 379 -61 L466 -61 Z " />
<glyph glyph-name="uni0123#0" unicode="&#x123;" horiz-adv-x="615" d="M275 546 Q328 546 370.5 526 Q413 506 443 465 L448 465 L460 536 L530 536 L530 -9 Q530 -124 471.5 -182 Q413 -240 290 -240 Q172 -240 97 -206 L97 -125 Q176 -167 295 -167 Q364 -167 403.5 -126.5 Q443 -86 443 -16 L443 5 Q443 17 444 39.5 Q445 62 446 71 L442 71 Q388 -10 276 -10 Q172 -10 113.5 63 Q55 136 55 267 Q55 395 113.5 470.5 Q172 546 275 546 Z M287 472 Q220 472 183 418.5 Q146 365 146 266 Q146 167 182.5 114.5 Q219 62 289 62 Q370 62 407 105.5 Q444 149 444 246 L444 267 Q444 377 406 424.5 Q368 472 287 472 Z M363 766 L363 754 Q355 737 346.5 710.5 Q338 684 331 655.5 Q324 627 321 606 L234 606 L234 615 Q239 633 251 660 Q263 687 279.5 715.5 Q296 744 314 766 L363 766 Z " />
<glyph glyph-name="Hcircumflex#0" unicode="&#x124;" horiz-adv-x="741" d="M643 0 L553 0 L553 333 L187 333 L187 0 L97 0 L97 714 L187 714 L187 412 L553 412 L553 714 L643 714 L643 0 Z M417 944 Q429 922 451.5 894.5 Q474 867 498.5 840.5 Q523 814 542 795 L542 784 L480 784 Q454 800 426 823.5 Q398 847 371 874 Q344 847 317 824 Q290 801 264 784 L204 784 L204 795 Q222 815 246 841 Q270 867 292 894.5 Q314 922 327 944 L417 944 Z " />
<glyph glyph-name="hcircumflex#0" unicode="&#x125;" horiz-adv-x="618" d="M173 760 L173 537 Q173 497 168 462 L174 462 Q200 503 244.5 524 Q289 545 341 545 Q439 545 488 498.5 Q537 452 537 349 L537 0 L450 0 L450 343 Q450 472 330 472 Q240 472 206.5 421.5 Q173 371 173 277 L173 0 L85 0 L85 760 L173 760 Z M176 990 Q188 968 210.5 940.5 Q233 913 257.5 886.5 Q282 860 301 841 L301 830 L239 830 Q213 846 185 869.5 Q157 893 130 920 Q103 893 76 870 Q49 847 23 830 L-37 830 L-37 841 Q-19 861 5 887 Q29 913 51 940.5 Q73 968 86 990 L176 990 Z " />
<glyph glyph-name="Hbar#0" unicode="&#x126;" horiz-adv-x="741" d="M97 0 L97 523 L0 523 L0 595 L97 595 L97 714 L187 714 L187 595 L553 595 L553 714 L643 714 L643 595 L740 595 L740 523 L643 523 L643 0 L553 0 L553 333 L187 333 L187 0 L97 0 Z M187 412 L553 412 L553 523 L187 523 L187 412 Z " />
<glyph glyph-name="hbar#0" unicode="&#x127;" horiz-adv-x="618" d="M173 760 L173 670 L385 670 L385 604 L173 604 L173 517 Q173 498 171.5 478.5 Q170 459 168 443 L174 443 Q200 484 245 505 Q290 526 342 526 Q439 526 488 479 Q537 432 537 329 L537 0 L450 0 L450 323 Q450 452 330 452 Q240 452 206.5 402 Q173 352 173 258 L173 0 L85 0 L85 604 L9 604 L9 670 L85 670 L85 760 L173 760 Z " />
<glyph glyph-name="itilde#0" unicode="&#x129;" horiz-adv-x="258" d="M173 0 L85 0 L85 536 L173 536 L173 0 Z M-55 606 Q-49 665 -20.5 699.5 Q8 734 55 734 Q85 734 111.5 719.5 Q138 705 162 691 Q186 677 207 677 Q230 677 242.5 691.5 Q255 706 262 735 L312 735 Q306 677 278 642 Q250 607 203 607 Q175 607 148.5 621 Q122 635 97.5 649.5 Q73 664 51 664 Q27 664 15 649.5 Q3 635 -4 606 L-55 606 Z " />
<glyph glyph-name="imacron#0" unicode="&#x12b;" horiz-adv-x="258" d="M173 0 L85 0 L85 536 L173 536 L173 0 Z M277 677 L277 606 L-20 606 L-20 677 L277 677 Z " />
<glyph glyph-name="ibreve#0" unicode="&#x12d;" horiz-adv-x="258" d="M173 0 L85 0 L85 536 L173 536 L173 0 Z M289 740 Q284 680 243.5 643 Q203 606 131 606 Q57 606 19.5 642.5 Q-18 679 -22 740 L32 740 Q37 699 62 688 Q87 677 133 677 Q172 677 200.5 689 Q229 701 234 740 L289 740 Z " />
<glyph glyph-name="iogonek#0" unicode="&#x12f;" horiz-adv-x="258" d="M130 737 Q150 737 165.5 723.5 Q181 710 181 681 Q181 653 165.5 639 Q150 625 130 625 Q108 625 93 639 Q78 653 78 681 Q78 710 93 723.5 Q108 737 130 737 Z M173 536 L173 0 L85 0 L85 536 L173 536 Z M99 -116 Q99 -161 144 -161 Q161 -161 172.5 -158.5 Q184 -156 192 -155 L192 -211 Q178 -215 164 -217.5 Q150 -220 130 -220 Q77 -220 52 -195 Q27 -170 27 -126 Q27 -97 41.5 -70 Q56 -43 77.5 -21 Q99 1 119 15 L167 0 Q133 -32 116 -58.5 Q99 -85 99 -116 Z " />
<glyph glyph-name="ij#0" unicode="&#x133;" horiz-adv-x="516" d="M130 737 Q150 737 165.5 723.5 Q181 710 181 681 Q181 653 165.5 639 Q150 625 130 625 Q108 625 93 639 Q78 653 78 681 Q78 710 93 723.5 Q108 737 130 737 Z M173 536 L173 0 L85 0 L85 536 L173 536 Z M336 681 Q336 710 351 723.5 Q366 737 388 737 Q408 737 423.5 723.5 Q439 710 439 681 Q439 653 423.5 639 Q408 625 388 625 Q366 625 351 639 Q336 653 336 681 Z M280 -240 Q255 -240 236 -236.5 Q217 -233 203 -228 L203 -157 Q218 -161 234 -164 Q250 -167 269 -167 Q301 -167 322 -149.5 Q343 -132 343 -83 L343 536 L431 536 L431 -80 Q431 -155 395 -197.5 Q359 -240 280 -240 Z " />
<glyph glyph-name="jcircumflex#0" unicode="&#x135;" horiz-adv-x="258" d="M22 -240 Q-3 -240 -22 -236.5 Q-41 -233 -55 -228 L-55 -157 Q-40 -161 -24 -164 Q-8 -167 11 -167 Q43 -167 64 -149.5 Q85 -132 85 -83 L85 536 L173 536 L173 -80 Q173 -155 137 -197.5 Q101 -240 22 -240 Z M175 766 Q187 744 209.5 716.5 Q232 689 256.5 662.5 Q281 636 300 617 L300 606 L238 606 Q212 622 184 645.5 Q156 669 129 696 Q102 669 75 646 Q48 623 22 606 L-38 606 L-38 617 Q-20 637 4 663 Q28 689 50 716.5 Q72 744 85 766 L175 766 Z " />
<glyph glyph-name="uni0136#0" unicode="&#x136;" horiz-adv-x="619" d="M619 0 L513 0 L260 341 L187 277 L187 0 L97 0 L97 714 L187 714 L187 362 Q217 396 248 430 Q279 464 310 498 L503 714 L608 714 L325 403 L619 0 Z M394 -61 L394 -70 Q390 -88 377.5 -115.5 Q365 -143 348.5 -171 Q332 -199 314 -221 L266 -221 L266 -209 Q274 -192 282.5 -165.5 Q291 -139 297.5 -110.5 Q304 -82 307 -61 L394 -61 Z " />
<glyph glyph-name="uni0137#0" unicode="&#x137;" horiz-adv-x="534" d="M172 760 L172 363 Q172 347 170.5 321 Q169 295 168 276 L172 276 Q178 284 190 299 Q202 314 214.5 329.5 Q227 345 236 355 L407 536 L510 536 L293 307 L525 0 L419 0 L233 250 L172 197 L172 0 L85 0 L85 760 L172 760 Z M331 -61 L331 -70 Q327 -88 314.5 -115.5 Q302 -143 285.5 -171 Q269 -199 251 -221 L203 -221 L203 -209 Q211 -192 219.5 -165.5 Q228 -139 234.5 -110.5 Q241 -82 244 -61 L331 -61 Z " />
<glyph glyph-name="kgreenlandic#0" unicode="&#x138;" horiz-adv-x="534" d="M509 536 L306 299 L525 0 L420 0 L244 242 L178 188 L178 0 L85 0 L85 536 L178 536 L178 397 Q178 357 176 319 Q174 281 172 261 L174 261 Q183 274 193.5 287.5 Q204 301 213 312 L403 536 L509 536 Z " />
<glyph glyph-name="Lacute#0" unicode="&#x139;" horiz-adv-x="524" d="M97 0 L97 714 L187 714 L187 80 L499 80 L499 0 L97 0 Z M281 944 L281 934 Q269 916 244 887.5 Q219 859 190 830.5 Q161 802 138 784 L80 784 L80 796 Q95 814 112.5 840.5 Q130 867 147 894.5 Q164 922 175 944 L281 944 Z " />
<glyph glyph-name="lacute#0" unicode="&#x13a;" horiz-adv-x="258" d="M173 0 L85 0 L85 760 L173 760 L173 0 Z M270 990 L270 980 Q258 962 233 933.5 Q208 905 179 876.5 Q150 848 127 830 L69 830 L69 842 Q84 860 101.5 886.5 Q119 913 136 940.5 Q153 968 164 990 L270 990 Z " />
<glyph glyph-name="uni013B#0" unicode="&#x13b;" horiz-adv-x="524" d="M97 0 L97 714 L187 714 L187 80 L499 80 L499 0 L97 0 Z M364 -61 L364 -70 Q360 -88 347.5 -115.5 Q335 -143 318.5 -171 Q302 -199 284 -221 L236 -221 L236 -209 Q244 -192 252.5 -165.5 Q261 -139 267.5 -110.5 Q274 -82 277 -61 L364 -61 Z " />
<glyph glyph-name="uni013C#0" unicode="&#x13c;" horiz-adv-x="258" d="M173 0 L85 0 L85 760 L173 760 L173 0 Z M193 -61 L193 -70 Q189 -88 176.5 -115.5 Q164 -143 147.5 -171 Q131 -199 113 -221 L65 -221 L65 -209 Q73 -192 81.5 -165.5 Q90 -139 96.5 -110.5 Q103 -82 106 -61 L193 -61 Z " />
<glyph glyph-name="Lcaron#0" unicode="&#x13d;" horiz-adv-x="524" d="M97 0 L97 714 L187 714 L187 80 L499 80 L499 0 L97 0 Z M499 714 L499 705 Q495 687 483.5 660 Q472 633 457 604.5 Q442 576 427 554 L379 554 L379 566 Q385 585 392 611.5 Q399 638 404 665.5 Q409 693 412 714 L499 714 Z " />
<glyph glyph-name="lcaron#0" unicode="&#x13e;" horiz-adv-x="258" d="M173 0 L85 0 L85 760 L173 760 L173 0 Z M337 760 L337 751 Q333 733 321.5 706 Q310 679 295 650.5 Q280 622 265 600 L217 600 L217 612 Q223 631 230 657.5 Q237 684 242 711.5 Q247 739 250 760 L337 760 Z " />
<glyph glyph-name="Ldot#0" unicode="&#x13f;" horiz-adv-x="524" d="M97 0 L97 714 L187 714 L187 80 L499 80 L499 0 L97 0 Z M383 413 Q403 413 418.5 399.5 Q434 386 434 357 Q434 329 418.5 315 Q403 301 383 301 Q361 301 346 315 Q331 329 331 357 Q331 386 346 399.5 Q361 413 383 413 Z " />
<glyph glyph-name="ldot#0" unicode="&#x140;" horiz-adv-x="268" d="M173 0 L85 0 L85 760 L173 760 L173 0 Z M263 435 Q283 435 298.5 421.5 Q314 408 314 379 Q314 351 298.5 337 Q283 323 263 323 Q241 323 226 337 Q211 351 211 379 Q211 408 226 421.5 Q241 435 263 435 Z " />
<glyph glyph-name="Lslash#0" unicode="&#x141;" horiz-adv-x="524" d="M97 0 L97 247 L48 219 L13 279 L97 329 L97 714 L187 714 L187 382 L324 463 L360 400 L187 300 L187 80 L499 80 L499 0 L97 0 Z " />
<glyph glyph-name="lslash#0" unicode="&#x142;" horiz-adv-x="258" d="M78 0 L78 285 L27 253 L-9 312 L78 368 L78 760 L166 760 L166 425 L230 469 L267 410 L166 342 L166 0 L78 0 Z " />
<glyph glyph-name="Nacute#0" unicode="&#x143;" horiz-adv-x="760" d="M663 0 L558 0 L176 593 L172 593 Q174 558 177 506 Q180 454 180 399 L180 0 L97 0 L97 714 L201 714 L582 123 L586 123 Q585 139 583.5 171 Q582 203 580.5 241 Q579 279 579 311 L579 714 L663 714 L663 0 Z M521 944 L521 934 Q509 916 484 887.5 Q459 859 430 830.5 Q401 802 378 784 L320 784 L320 796 Q335 814 352.5 840.5 Q370 867 387 894.5 Q404 922 415 944 L521 944 Z " />
<glyph glyph-name="nacute#0" unicode="&#x144;" horiz-adv-x="618" d="M343 546 Q439 546 488 499.5 Q537 453 537 349 L537 0 L450 0 L450 343 Q450 472 330 472 Q241 472 207 422 Q173 372 173 278 L173 0 L85 0 L85 536 L156 536 L169 463 L174 463 Q200 505 246 525.5 Q292 546 343 546 Z M450 766 L450 756 Q438 738 413 709.5 Q388 681 359 652.5 Q330 624 307 606 L249 606 L249 618 Q264 636 281.5 662.5 Q299 689 316 716.5 Q333 744 344 766 L450 766 Z " />
<glyph glyph-name="uni0145#0" unicode="&#x145;" horiz-adv-x="760" d="M663 0 L558 0 L176 593 L172 593 Q174 558 177 506 Q180 454 180 399 L180 0 L97 0 L97 714 L201 714 L582 123 L586 123 Q585 139 583.5 171 Q582 203 580.5 241 Q579 279 579 311 L579 714 L663 714 L663 0 Z M444 -61 L444 -70 Q440 -88 427.5 -115.5 Q415 -143 398.5 -171 Q382 -199 364 -221 L316 -221 L316 -209 Q324 -192 332.5 -165.5 Q341 -139 347.5 -110.5 Q354 -82 357 -61 L444 -61 Z " />
<glyph glyph-name="uni0146#0" unicode="&#x146;" horiz-adv-x="618" d="M343 546 Q439 546 488 499.5 Q537 453 537 349 L537 0 L450 0 L450 343 Q450 472 330 472 Q241 472 207 422 Q173 372 173 278 L173 0 L85 0 L85 536 L156 536 L169 463 L174 463 Q200 505 246 525.5 Q292 546 343 546 Z M373 -61 L373 -70 Q369 -88 356.5 -115.5 Q344 -143 327.5 -171 Q311 -199 293 -221 L245 -221 L245 -209 Q253 -192 261.5 -165.5 Q270 -139 276.5 -110.5 Q283 -82 286 -61 L373 -61 Z " />
<glyph glyph-name="Ncaron#0" unicode="&#x147;" horiz-adv-x="760" d="M663 0 L558 0 L176 593 L172 593 Q174 558 177 506 Q180 454 180 399 L180 0 L97 0 L97 714 L201 714 L582 123 L586 123 Q585 139 583.5 171 Q582 203 580.5 241 Q579 279 579 311 L579 714 L663 714 L663 0 Z M334 784 Q321 807 299 833.5 Q277 860 253 886 Q229 912 211 931 L211 944 L271 944 Q297 927 325 903 Q353 879 378 852 Q405 879 433 903 Q461 927 487 944 L549 944 L549 931 Q530 912 505.5 886 Q481 860 458.5 833.5 Q436 807 424 784 L334 784 Z " />
<glyph glyph-name="ncaron#0" unicode="&#x148;" horiz-adv-x="618" d="M343 546 Q439 546 488 499.5 Q537 453 537 349 L537 0 L450 0 L450 343 Q450 472 330 472 Q241 472 207 422 Q173 372 173 278 L173 0 L85 0 L85 536 L156 536 L169 463 L174 463 Q200 505 246 525.5 Q292 546 343 546 Z M263 606 Q250 629 228 655.5 Q206 682 182 708 Q158 734 140 753 L140 766 L200 766 Q226 749 254 725 Q282 701 307 674 Q334 701 362 725 Q390 749 416 766 L478 766 L478 753 Q459 734 434.5 708 Q410 682 387.5 655.5 Q365 629 353 606 L263 606 Z " />
<glyph glyph-name="napostrophe#0" unicode="&#x149;" horiz-adv-x="688" d="M413 546 Q509 546 558 499.5 Q607 453 607 349 L607 0 L520 0 L520 343 Q520 472 400 472 Q311 472 277 422 Q243 372 243 278 L243 0 L155 0 L155 536 L226 536 L239 463 L244 463 Q270 505 316 525.5 Q362 546 413 546 Z M145 714 L152 703 Q139 651 114.5 586.5 Q90 522 66 469 L1 469 Q11 507 20.5 550.5 Q30 594 38 636.5 Q46 679 51 714 L145 714 Z " />
<glyph glyph-name="Eng#0" unicode="&#x14a;" horiz-adv-x="760" d="M475 -190 Q450 -190 431.5 -186.5 Q413 -183 399 -177 L399 -101 Q415 -105 434 -108 Q453 -111 475 -111 Q501 -111 524.5 -101.5 Q548 -92 563.5 -67.5 Q579 -43 579 0 L176 593 L172 593 Q174 574 175.5 539 Q177 504 178.5 464 Q180 424 180 387 L180 0 L97 0 L97 714 L201 714 L582 142 L586 142 Q583 174 581 230.5 Q579 287 579 342 L579 714 L663 714 L663 6 Q663 -94 612 -142 Q561 -190 475 -190 Z " />
<glyph glyph-name="eng#0" unicode="&#x14b;" horiz-adv-x="618" d="M394 -240 Q370 -240 353 -236.5 Q336 -233 323 -228 L323 -157 Q337 -161 351 -164 Q365 -167 383 -167 Q412 -167 431 -149.5 Q450 -132 450 -83 L450 344 Q450 472 331 472 Q242 472 207.5 422.5 Q173 373 173 279 L173 0 L85 0 L85 536 L156 536 L170 463 L175 463 Q201 505 245.5 525.5 Q290 546 342 546 Q440 546 489 499.5 Q538 453 538 350 L538 -80 Q538 -155 503 -197.5 Q468 -240 394 -240 Z " />
<glyph glyph-name="Omacron#0" unicode="&#x14c;" horiz-adv-x="781" d="M720 358 Q720 247 682.5 164.5 Q645 82 571.5 36 Q498 -10 391 -10 Q279 -10 206 36 Q133 82 97 165 Q61 248 61 359 Q61 469 97 551 Q133 633 206.5 679 Q280 725 392 725 Q499 725 572 679.5 Q645 634 682.5 551.5 Q720 469 720 358 Z M156 358 Q156 223 213 145.5 Q270 68 391 68 Q513 68 569 145.5 Q625 223 625 358 Q625 493 569 569.5 Q513 646 392 646 Q271 646 213.5 569.5 Q156 493 156 358 Z M539 855 L539 784 L242 784 L242 855 L539 855 Z " />
<glyph glyph-name="omacron#0" unicode="&#x14d;" horiz-adv-x="605" d="M551 269 Q551 136 483.5 63 Q416 -10 301 -10 Q230 -10 174.5 22.5 Q119 55 87 117.5 Q55 180 55 269 Q55 402 122 474 Q189 546 304 546 Q377 546 432.5 513.5 Q488 481 519.5 419.5 Q551 358 551 269 Z M146 269 Q146 174 183.5 118.5 Q221 63 303 63 Q384 63 422 118.5 Q460 174 460 269 Q460 364 422 418 Q384 472 302 472 Q220 472 183 418 Q146 364 146 269 Z M451 677 L451 606 L154 606 L154 677 L451 677 Z " />
<glyph glyph-name="Obreve#0" unicode="&#x14e;" horiz-adv-x="781" d="M720 358 Q720 247 682.5 164.5 Q645 82 571.5 36 Q498 -10 391 -10 Q279 -10 206 36 Q133 82 97 165 Q61 248 61 359 Q61 469 97 551 Q133 633 206.5 679 Q280 725 392 725 Q499 725 572 679.5 Q645 634 682.5 551.5 Q720 469 720 358 Z M156 358 Q156 223 213 145.5 Q270 68 391 68 Q513 68 569 145.5 Q625 223 625 358 Q625 493 569 569.5 Q513 646 392 646 Q271 646 213.5 569.5 Q156 493 156 358 Z M551 918 Q546 858 505.5 821 Q465 784 393 784 Q319 784 281.5 820.5 Q244 857 240 918 L294 918 Q299 877 324 866 Q349 855 395 855 Q434 855 462.5 867 Q491 879 496 918 L551 918 Z " />
<glyph glyph-name="obreve#0" unicode="&#x14f;" horiz-adv-x="605" d="M551 269 Q551 136 483.5 63 Q416 -10 301 -10 Q230 -10 174.5 22.5 Q119 55 87 117.5 Q55 180 55 269 Q55 402 122 474 Q189 546 304 546 Q377 546 432.5 513.5 Q488 481 519.5 419.5 Q551 358 551 269 Z M146 269 Q146 174 183.5 118.5 Q221 63 303 63 Q384 63 422 118.5 Q460 174 460 269 Q460 364 422 418 Q384 472 302 472 Q220 472 183 418 Q146 364 146 269 Z M463 740 Q458 680 417.5 643 Q377 606 305 606 Q231 606 193.5 642.5 Q156 679 152 740 L206 740 Q211 699 236 688 Q261 677 307 677 Q346 677 374.5 689 Q403 701 408 740 L463 740 Z " />
<glyph glyph-name="Ohungarumlaut#0" unicode="&#x150;" horiz-adv-x="781" d="M720 358 Q720 247 682.5 164.5 Q645 82 571.5 36 Q498 -10 391 -10 Q279 -10 206 36 Q133 82 97 165 Q61 248 61 359 Q61 469 97 551 Q133 633 206.5 679 Q280 725 392 725 Q499 725 572 679.5 Q645 634 682.5 551.5 Q720 469 720 358 Z M156 358 Q156 223 213 145.5 Q270 68 391 68 Q513 68 569 145.5 Q625 223 625 358 Q625 493 569 569.5 Q513 646 392 646 Q271 646 213.5 569.5 Q156 493 156 358 Z M626 944 L626 934 Q616 916 593 887.5 Q570 859 543 830.5 Q516 802 493 784 L443 784 L443 796 Q457 815 473 841 Q489 867 504.5 894.5 Q520 922 530 944 L626 944 Z M450 944 L450 934 Q440 916 417 887.5 Q394 859 367 830.5 Q340 802 317 784 L267 784 L267 796 Q288 825 313 867.5 Q338 910 354 944 L450 944 Z " />
<glyph glyph-name="ohungarumlaut#0" unicode="&#x151;" horiz-adv-x="605" d="M551 269 Q551 136 483.5 63 Q416 -10 301 -10 Q230 -10 174.5 22.5 Q119 55 87 117.5 Q55 180 55 269 Q55 402 122 474 Q189 546 304 546 Q377 546 432.5 513.5 Q488 481 519.5 419.5 Q551 358 551 269 Z M146 269 Q146 174 183.5 118.5 Q221 63 303 63 Q384 63 422 118.5 Q460 174 460 269 Q460 364 422 418 Q384 472 302 472 Q220 472 183 418 Q146 364 146 269 Z M538 766 L538 756 Q528 738 505 709.5 Q482 681 455 652.5 Q428 624 405 606 L355 606 L355 618 Q369 637 385 663 Q401 689 416.5 716.5 Q432 744 442 766 L538 766 Z M362 766 L362 756 Q352 738 329 709.5 Q306 681 279 652.5 Q252 624 229 606 L179 606 L179 618 Q200 647 225 689.5 Q250 732 266 766 L362 766 Z " />
<glyph glyph-name="OE#0" unicode="&#x152;" horiz-adv-x="928" d="M386 725 Q436 725 482 714 L868 714 L868 635 L581 635 L581 412 L849 412 L849 334 L581 334 L581 79 L868 79 L868 0 L488 0 Q466 -4 441.5 -7 Q417 -10 391 -10 Q279 -10 206 36 Q133 82 97 165 Q61 248 61 359 Q61 469 96.5 551.5 Q132 634 204.5 679.5 Q277 725 386 725 Z M394 646 Q271 646 213 569.5 Q155 493 155 358 Q155 223 213 145.5 Q271 68 393 68 Q450 68 492 85 L492 630 Q451 646 394 646 Z " />
<glyph glyph-name="oe#0" unicode="&#x153;" horiz-adv-x="946" d="M677 545 Q778 545 836 479.5 Q894 414 894 304 L894 251 L538 251 Q540 155 581.5 110 Q623 65 700 65 Q753 65 791.5 74.5 Q830 84 870 102 L870 25 Q830 7 791 -1.5 Q752 -10 699 -10 Q631 -10 579 18 Q527 46 495 101 Q464 46 413 18 Q362 -10 296 -10 Q226 -10 171.5 22.5 Q117 55 85.5 117 Q54 179 54 269 Q54 401 119.5 473 Q185 545 299 545 Q362 545 412 517 Q462 489 492 435 Q521 488 568.5 516.5 Q616 545 677 545 Z M676 473 Q616 473 581 434 Q546 395 540 321 L801 321 Q801 390 771 431.5 Q741 473 676 473 Z M295 472 Q216 472 181 421 Q146 370 146 269 Q146 168 182 115.5 Q218 63 297 63 Q375 63 411 114 Q447 165 447 265 Q447 369 410.5 420.5 Q374 472 295 472 Z " />
<glyph glyph-name="Racute#0" unicode="&#x154;" horiz-adv-x="622" d="M294 714 Q427 714 490.5 663.5 Q554 613 554 511 Q554 454 533 416 Q512 378 479.5 355.5 Q447 333 411 320 L607 0 L502 0 L329 295 L187 295 L187 0 L97 0 L97 714 L294 714 Z M289 636 L187 636 L187 371 L294 371 Q381 371 421 405.5 Q461 440 461 507 Q461 577 419 606.5 Q377 636 289 636 Z M452 944 L452 934 Q440 916 415 887.5 Q390 859 361 830.5 Q332 802 309 784 L251 784 L251 796 Q266 814 283.5 840.5 Q301 867 318 894.5 Q335 922 346 944 L452 944 Z " />
<glyph glyph-name="racute#0" unicode="&#x155;" horiz-adv-x="413" d="M335 546 Q350 546 367.5 544.5 Q385 543 398 540 L387 459 Q374 462 358.5 464 Q343 466 329 466 Q288 466 252 443.5 Q216 421 194.5 380.5 Q173 340 173 286 L173 0 L85 0 L85 536 L157 536 L167 438 L171 438 Q197 482 238 514 Q279 546 335 546 Z M381 766 L381 756 Q369 738 344 709.5 Q319 681 290 652.5 Q261 624 238 606 L180 606 L180 618 Q195 636 212.5 662.5 Q230 689 247 716.5 Q264 744 275 766 L381 766 Z " />
<glyph glyph-name="uni0156#0" unicode="&#x156;" horiz-adv-x="622" d="M294 714 Q427 714 490.5 663.5 Q554 613 554 511 Q554 454 533 416 Q512 378 479.5 355.5 Q447 333 411 320 L607 0 L502 0 L329 295 L187 295 L187 0 L97 0 L97 714 L294 714 Z M289 636 L187 636 L187 371 L294 371 Q381 371 421 405.5 Q461 440 461 507 Q461 577 419 606.5 Q377 636 289 636 Z M392 -61 L392 -70 Q388 -88 375.5 -115.5 Q363 -143 346.5 -171 Q330 -199 312 -221 L264 -221 L264 -209 Q272 -192 280.5 -165.5 Q289 -139 295.5 -110.5 Q302 -82 305 -61 L392 -61 Z " />
<glyph glyph-name="uni0157#0" unicode="&#x157;" horiz-adv-x="413" d="M335 546 Q350 546 367.5 544.5 Q385 543 398 540 L387 459 Q374 462 358.5 464 Q343 466 329 466 Q288 466 252 443.5 Q216 421 194.5 380.5 Q173 340 173 286 L173 0 L85 0 L85 536 L157 536 L167 438 L171 438 Q197 482 238 514 Q279 546 335 546 Z M190 -61 L190 -70 Q186 -88 173.5 -115.5 Q161 -143 144.5 -171 Q128 -199 110 -221 L62 -221 L62 -209 Q70 -192 78.5 -165.5 Q87 -139 93.5 -110.5 Q100 -82 103 -61 L190 -61 Z " />
<glyph glyph-name="Rcaron#0" unicode="&#x158;" horiz-adv-x="622" d="M294 714 Q427 714 490.5 663.5 Q554 613 554 511 Q554 454 533 416 Q512 378 479.5 355.5 Q447 333 411 320 L607 0 L502 0 L329 295 L187 295 L187 0 L97 0 L97 714 L294 714 Z M289 636 L187 636 L187 371 L294 371 Q381 371 421 405.5 Q461 440 461 507 Q461 577 419 606.5 Q377 636 289 636 Z M265 784 Q252 807 230 833.5 Q208 860 184 886 Q160 912 142 931 L142 944 L202 944 Q228 927 256 903 Q284 879 309 852 Q336 879 364 903 Q392 927 418 944 L480 944 L480 931 Q461 912 436.5 886 Q412 860 389.5 833.5 Q367 807 355 784 L265 784 Z " />
<glyph glyph-name="rcaron#0" unicode="&#x159;" horiz-adv-x="413" d="M335 546 Q350 546 367.5 544.5 Q385 543 398 540 L387 459 Q374 462 358.5 464 Q343 466 329 466 Q288 466 252 443.5 Q216 421 194.5 380.5 Q173 340 173 286 L173 0 L85 0 L85 536 L157 536 L167 438 L171 438 Q197 482 238 514 Q279 546 335 546 Z M194 606 Q181 629 159 655.5 Q137 682 113 708 Q89 734 71 753 L71 766 L131 766 Q157 749 185 725 Q213 701 238 674 Q265 701 293 725 Q321 749 347 766 L409 766 L409 753 Q390 734 365.5 708 Q341 682 318.5 655.5 Q296 629 284 606 L194 606 Z " />
<glyph glyph-name="Sacute#0" unicode="&#x15a;" horiz-adv-x="549" d="M502 191 Q502 96 433 43 Q364 -10 247 -10 Q187 -10 136 -1 Q85 8 51 24 L51 110 Q87 94 140.5 81 Q194 68 251 68 Q331 68 371.5 99 Q412 130 412 183 Q412 218 397 242 Q382 266 345.5 286.5 Q309 307 244 330 Q153 363 106.5 411 Q60 459 60 542 Q60 599 89 639.5 Q118 680 169.5 702 Q221 724 288 724 Q347 724 396 713 Q445 702 485 684 L457 607 Q420 623 376.5 634 Q333 645 286 645 Q219 645 185 616.5 Q151 588 151 541 Q151 505 166 481 Q181 457 215 438 Q249 419 307 397 Q370 374 413.5 347.5 Q457 321 479.5 284 Q502 247 502 191 Z M426 944 L426 934 Q414 916 389 887.5 Q364 859 335 830.5 Q306 802 283 784 L225 784 L225 796 Q240 814 257.5 840.5 Q275 867 292 894.5 Q309 922 320 944 L426 944 Z " />
<glyph glyph-name="sacute#0" unicode="&#x15b;" horiz-adv-x="479" d="M434 148 Q434 70 376 30 Q318 -10 220 -10 Q164 -10 123.5 -1 Q83 8 52 24 L52 104 Q84 88 129.5 74.5 Q175 61 222 61 Q289 61 319 82.5 Q349 104 349 140 Q349 160 338 176 Q327 192 298.5 208 Q270 224 217 244 Q165 264 128 284 Q91 304 71 332 Q51 360 51 404 Q51 472 106.5 509 Q162 546 252 546 Q301 546 343.5 536.5 Q386 527 423 510 L393 440 Q359 454 322 464 Q285 474 246 474 Q192 474 163.5 456.5 Q135 439 135 409 Q135 387 148 371.5 Q161 356 191.5 341.5 Q222 327 273 307 Q324 288 360 268 Q396 248 415 219.5 Q434 191 434 148 Z M381 766 L381 756 Q369 738 344 709.5 Q319 681 290 652.5 Q261 624 238 606 L180 606 L180 618 Q195 636 212.5 662.5 Q230 689 247 716.5 Q264 744 275 766 L381 766 Z " />
<glyph glyph-name="Scircumflex#0" unicode="&#x15c;" horiz-adv-x="549" d="M502 191 Q502 96 433 43 Q364 -10 247 -10 Q187 -10 136 -1 Q85 8 51 24 L51 110 Q87 94 140.5 81 Q194 68 251 68 Q331 68 371.5 99 Q412 130 412 183 Q412 218 397 242 Q382 266 345.5 286.5 Q309 307 244 330 Q153 363 106.5 411 Q60 459 60 542 Q60 599 89 639.5 Q118 680 169.5 702 Q221 724 288 724 Q347 724 396 713 Q445 702 485 684 L457 607 Q420 623 376.5 634 Q333 645 286 645 Q219 645 185 616.5 Q151 588 151 541 Q151 505 166 481 Q181 457 215 438 Q249 419 307 397 Q370 374 413.5 347.5 Q457 321 479.5 284 Q502 247 502 191 Z M331 944 Q343 922 365.5 894.5 Q388 867 412.5 840.5 Q437 814 456 795 L456 784 L394 784 Q368 800 340 823.5 Q312 847 285 874 Q258 847 231 824 Q204 801 178 784 L118 784 L118 795 Q136 815 160 841 Q184 867 206 894.5 Q228 922 241 944 L331 944 Z " />
<glyph glyph-name="scircumflex#0" unicode="&#x15d;" horiz-adv-x="479" d="M434 148 Q434 70 376 30 Q318 -10 220 -10 Q164 -10 123.5 -1 Q83 8 52 24 L52 104 Q84 88 129.5 74.5 Q175 61 222 61 Q289 61 319 82.5 Q349 104 349 140 Q349 160 338 176 Q327 192 298.5 208 Q270 224 217 244 Q165 264 128 284 Q91 304 71 332 Q51 360 51 404 Q51 472 106.5 509 Q162 546 252 546 Q301 546 343.5 536.5 Q386 527 423 510 L393 440 Q359 454 322 464 Q285 474 246 474 Q192 474 163.5 456.5 Q135 439 135 409 Q135 387 148 371.5 Q161 356 191.5 341.5 Q222 327 273 307 Q324 288 360 268 Q396 248 415 219.5 Q434 191 434 148 Z M286 766 Q298 744 320.5 716.5 Q343 689 367.5 662.5 Q392 636 411 617 L411 606 L349 606 Q323 622 295 645.5 Q267 669 240 696 Q213 669 186 646 Q159 623 133 606 L73 606 L73 617 Q91 637 115 663 Q139 689 161 716.5 Q183 744 196 766 L286 766 Z " />
<glyph glyph-name="Scedilla#0" unicode="&#x15e;" horiz-adv-x="549" d="M502 191 Q502 96 433 43 Q364 -10 247 -10 Q187 -10 136 -1 Q85 8 51 24 L51 110 Q87 94 140.5 81 Q194 68 251 68 Q331 68 371.5 99 Q412 130 412 183 Q412 218 397 242 Q382 266 345.5 286.5 Q309 307 244 330 Q153 363 106.5 411 Q60 459 60 542 Q60 599 89 639.5 Q118 680 169.5 702 Q221 724 288 724 Q347 724 396 713 Q445 702 485 684 L457 607 Q420 623 376.5 634 Q333 645 286 645 Q219 645 185 616.5 Q151 588 151 541 Q151 505 166 481 Q181 457 215 438 Q249 419 307 397 Q370 374 413.5 347.5 Q457 321 479.5 284 Q502 247 502 191 Z M358 -139 Q358 -187 321 -213.5 Q284 -240 210 -240 Q178 -240 160 -235 L160 -180 Q169 -182 184 -183.5 Q199 -185 213 -185 Q249 -185 268 -175.5 Q287 -166 287 -141 Q287 -115 260.5 -103 Q234 -91 196 -86 L239 0 L297 0 L271 -53 Q307 -61 332.5 -81 Q358 -101 358 -139 Z " />
<glyph glyph-name="scedilla#0" unicode="&#x15f;" horiz-adv-x="479" d="M434 148 Q434 70 376 30 Q318 -10 220 -10 Q164 -10 123.5 -1 Q83 8 52 24 L52 104 Q84 88 129.5 74.5 Q175 61 222 61 Q289 61 319 82.5 Q349 104 349 140 Q349 160 338 176 Q327 192 298.5 208 Q270 224 217 244 Q165 264 128 284 Q91 304 71 332 Q51 360 51 404 Q51 472 106.5 509 Q162 546 252 546 Q301 546 343.5 536.5 Q386 527 423 510 L393 440 Q359 454 322 464 Q285 474 246 474 Q192 474 163.5 456.5 Q135 439 135 409 Q135 387 148 371.5 Q161 356 191.5 341.5 Q222 327 273 307 Q324 288 360 268 Q396 248 415 219.5 Q434 191 434 148 Z M341 -139 Q341 -187 304 -213.5 Q267 -240 193 -240 Q161 -240 143 -235 L143 -180 Q152 -182 167 -183.5 Q182 -185 196 -185 Q232 -185 251 -175.5 Q270 -166 270 -141 Q270 -115 243.5 -103 Q217 -91 179 -86 L222 0 L280 0 L254 -53 Q290 -61 315.5 -81 Q341 -101 341 -139 Z " />
<glyph glyph-name="Scaron#0" unicode="&#x160;" horiz-adv-x="549" d="M502 191 Q502 96 433 43 Q364 -10 247 -10 Q187 -10 136 -1 Q85 8 51 24 L51 110 Q87 94 140.5 81 Q194 68 251 68 Q331 68 371.5 99 Q412 130 412 183 Q412 218 397 242 Q382 266 345.5 286.5 Q309 307 244 330 Q153 363 106.5 411 Q60 459 60 542 Q60 599 89 639.5 Q118 680 169.5 702 Q221 724 288 724 Q347 724 396 713 Q445 702 485 684 L457 607 Q420 623 376.5 634 Q333 645 286 645 Q219 645 185 616.5 Q151 588 151 541 Q151 505 166 481 Q181 457 215 438 Q249 419 307 397 Q370 374 413.5 347.5 Q457 321 479.5 284 Q502 247 502 191 Z M239 784 Q226 807 204 833.5 Q182 860 158 886 Q134 912 116 931 L116 944 L176 944 Q202 927 230 903 Q258 879 283 852 Q310 879 338 903 Q366 927 392 944 L454 944 L454 931 Q435 912 410.5 886 Q386 860 363.5 833.5 Q341 807 329 784 L239 784 Z " />
<glyph glyph-name="scaron#0" unicode="&#x161;" horiz-adv-x="479" d="M434 148 Q434 70 376 30 Q318 -10 220 -10 Q164 -10 123.5 -1 Q83 8 52 24 L52 104 Q84 88 129.5 74.5 Q175 61 222 61 Q289 61 319 82.5 Q349 104 349 140 Q349 160 338 176 Q327 192 298.5 208 Q270 224 217 244 Q165 264 128 284 Q91 304 71 332 Q51 360 51 404 Q51 472 106.5 509 Q162 546 252 546 Q301 546 343.5 536.5 Q386 527 423 510 L393 440 Q359 454 322 464 Q285 474 246 474 Q192 474 163.5 456.5 Q135 439 135 409 Q135 387 148 371.5 Q161 356 191.5 341.5 Q222 327 273 307 Q324 288 360 268 Q396 248 415 219.5 Q434 191 434 148 Z M194 606 Q181 629 159 655.5 Q137 682 113 708 Q89 734 71 753 L71 766 L131 766 Q157 749 185 725 Q213 701 238 674 Q265 701 293 725 Q321 749 347 766 L409 766 L409 753 Q390 734 365.5 708 Q341 682 318.5 655.5 Q296 629 284 606 L194 606 Z " />
<glyph glyph-name="uni021A#0" unicode="&#x21a;" horiz-adv-x="556" d="M323 0 L233 0 L233 635 L10 635 L10 714 L545 714 L545 635 L323 635 L323 0 Z M342 -61 L342 -70 Q338 -88 325.5 -115.5 Q313 -143 296.5 -171 Q280 -199 262 -221 L214 -221 L214 -209 Q222 -192 230.5 -165.5 Q239 -139 245.5 -110.5 Q252 -82 255 -61 L342 -61 Z " />
<glyph glyph-name="uni021B#0" unicode="&#x21b;" horiz-adv-x="361" d="M264 62 Q284 62 305 65.5 Q326 69 339 73 L339 6 Q325 -1 299 -5.5 Q273 -10 249 -10 Q207 -10 171.5 4.5 Q136 19 114 55 Q92 91 92 156 L92 468 L16 468 L16 510 L93 545 L128 659 L180 659 L180 536 L335 536 L335 468 L180 468 L180 158 Q180 109 203.5 85.5 Q227 62 264 62 Z M278 -61 L278 -70 Q274 -88 261.5 -115.5 Q249 -143 232.5 -171 Q216 -199 198 -221 L150 -221 L150 -209 Q158 -192 166.5 -165.5 Q175 -139 181.5 -110.5 Q188 -82 191 -61 L278 -61 Z " />
<glyph glyph-name="Tcaron#0" unicode="&#x164;" horiz-adv-x="556" d="M323 0 L233 0 L233 635 L10 635 L10 714 L545 714 L545 635 L323 635 L323 0 Z M232 784 Q219 807 197 833.5 Q175 860 151 886 Q127 912 109 931 L109 944 L169 944 Q195 927 223 903 Q251 879 276 852 Q303 879 331 903 Q359 927 385 944 L447 944 L447 931 Q428 912 403.5 886 Q379 860 356.5 833.5 Q334 807 322 784 L232 784 Z " />
<glyph glyph-name="tcaron#0" unicode="&#x165;" horiz-adv-x="361" d="M264 62 Q284 62 305 65.5 Q326 69 339 73 L339 6 Q325 -1 299 -5.5 Q273 -10 249 -10 Q207 -10 171.5 4.5 Q136 19 114 55 Q92 91 92 156 L92 468 L16 468 L16 510 L93 545 L128 659 L180 659 L180 536 L335 536 L335 468 L180 468 L180 158 Q180 109 203.5 85.5 Q227 62 264 62 Z M470 760 L470 751 Q466 733 454.5 706 Q443 679 428 650.5 Q413 622 398 600 L350 600 L350 612 Q356 631 363 657.5 Q370 684 375 711.5 Q380 739 383 760 L470 760 Z " />
<glyph glyph-name="Tbar#0" unicode="&#x166;" horiz-adv-x="556" d="M232 0 L232 325 L83 325 L83 399 L232 399 L232 634 L10 634 L10 714 L545 714 L545 634 L322 634 L322 399 L470 399 L470 325 L322 325 L322 0 L232 0 Z " />
<glyph glyph-name="tbar#0" unicode="&#x167;" horiz-adv-x="361" d="M24 280 L24 346 L326 346 L326 280 L24 280 Z M264 62 Q284 62 305 65.5 Q326 69 339 73 L339 6 Q325 -1 299 -5.5 Q273 -10 249 -10 Q207 -10 171.5 4.5 Q136 19 114 55 Q92 91 92 156 L92 468 L16 468 L16 510 L93 545 L128 659 L180 659 L180 536 L335 536 L335 468 L180 468 L180 158 Q180 109 203.5 85.5 Q227 62 264 62 Z " />
<glyph glyph-name="Utilde#0" unicode="&#x168;" horiz-adv-x="731" d="M640 714 L640 252 Q640 178 610 118.5 Q580 59 518.5 24.5 Q457 -10 362 -10 Q229 -10 159.5 62.5 Q90 135 90 254 L90 714 L180 714 L180 251 Q180 164 226.5 116 Q273 68 367 68 Q464 68 507.5 119.5 Q551 171 551 252 L551 714 L640 714 Z M182 784 Q188 843 216.5 877.5 Q245 912 292 912 Q322 912 348.5 897.5 Q375 883 399 869 Q423 855 444 855 Q467 855 479.5 869.5 Q492 884 499 913 L549 913 Q543 855 515 820 Q487 785 440 785 Q412 785 385.5 799 Q359 813 334.5 827.5 Q310 842 288 842 Q264 842 252 827.5 Q240 813 233 784 L182 784 Z " />
<glyph glyph-name="utilde#0" unicode="&#x169;" horiz-adv-x="618" d="M533 536 L533 0 L461 0 L448 71 L444 71 Q418 29 372 9.5 Q326 -10 274 -10 Q177 -10 128 36.5 Q79 83 79 185 L79 536 L168 536 L168 191 Q168 63 287 63 Q376 63 410.5 113 Q445 163 445 257 L445 536 L533 536 Z M125 606 Q131 665 159.5 699.5 Q188 734 235 734 Q265 734 291.5 719.5 Q318 705 342 691 Q366 677 387 677 Q410 677 422.5 691.5 Q435 706 442 735 L492 735 Q486 677 458 642 Q430 607 383 607 Q355 607 328.5 621 Q302 635 277.5 649.5 Q253 664 231 664 Q207 664 195 649.5 Q183 635 176 606 L125 606 Z " />
<glyph glyph-name="Umacron#0" unicode="&#x16a;" horiz-adv-x="731" d="M640 714 L640 252 Q640 178 610 118.5 Q580 59 518.5 24.5 Q457 -10 362 -10 Q229 -10 159.5 62.5 Q90 135 90 254 L90 714 L180 714 L180 251 Q180 164 226.5 116 Q273 68 367 68 Q464 68 507.5 119.5 Q551 171 551 252 L551 714 L640 714 Z M514 855 L514 784 L217 784 L217 855 L514 855 Z " />
<glyph glyph-name="umacron#0" unicode="&#x16b;" horiz-adv-x="618" d="M533 536 L533 0 L461 0 L448 71 L444 71 Q418 29 372 9.5 Q326 -10 274 -10 Q177 -10 128 36.5 Q79 83 79 185 L79 536 L168 536 L168 191 Q168 63 287 63 Q376 63 410.5 113 Q445 163 445 257 L445 536 L533 536 Z M457 677 L457 606 L160 606 L160 677 L457 677 Z " />
<glyph glyph-name="Ubreve#0" unicode="&#x16c;" horiz-adv-x="731" d="M640 714 L640 252 Q640 178 610 118.5 Q580 59 518.5 24.5 Q457 -10 362 -10 Q229 -10 159.5 62.5 Q90 135 90 254 L90 714 L180 714 L180 251 Q180 164 226.5 116 Q273 68 367 68 Q464 68 507.5 119.5 Q551 171 551 252 L551 714 L640 714 Z M526 918 Q521 858 480.5 821 Q440 784 368 784 Q294 784 256.5 820.5 Q219 857 215 918 L269 918 Q274 877 299 866 Q324 855 370 855 Q409 855 437.5 867 Q466 879 471 918 L526 918 Z " />
<glyph glyph-name="ubreve#0" unicode="&#x16d;" horiz-adv-x="618" d="M533 536 L533 0 L461 0 L448 71 L444 71 Q418 29 372 9.5 Q326 -10 274 -10 Q177 -10 128 36.5 Q79 83 79 185 L79 536 L168 536 L168 191 Q168 63 287 63 Q376 63 410.5 113 Q445 163 445 257 L445 536 L533 536 Z M469 740 Q464 680 423.5 643 Q383 606 311 606 Q237 606 199.5 642.5 Q162 679 158 740 L212 740 Q217 699 242 688 Q267 677 313 677 Q352 677 380.5 689 Q409 701 414 740 L469 740 Z " />
<glyph glyph-name="Uring#0" unicode="&#x16e;" horiz-adv-x="731" d="M640 714 L640 252 Q640 178 610 118.5 Q580 59 518.5 24.5 Q457 -10 362 -10 Q229 -10 159.5 62.5 Q90 135 90 254 L90 714 L180 714 L180 251 Q180 164 226.5 116 Q273 68 367 68 Q464 68 507.5 119.5 Q551 171 551 252 L551 714 L640 714 Z M367 784 Q318 784 288 812 Q258 840 258 890 Q258 940 288 967.5 Q318 995 367 995 Q414 995 446 967.5 Q478 940 478 891 Q478 840 446.5 812 Q415 784 367 784 Z M367 834 Q392 834 407.5 849 Q423 864 423 890 Q423 916 407 931 Q391 946 367 946 Q343 946 327 931 Q311 916 311 890 Q311 864 325.5 849 Q340 834 367 834 Z " />
<glyph glyph-name="uring#0" unicode="&#x16f;" horiz-adv-x="618" d="M533 536 L533 0 L461 0 L448 71 L444 71 Q418 29 372 9.5 Q326 -10 274 -10 Q177 -10 128 36.5 Q79 83 79 185 L79 536 L168 536 L168 191 Q168 63 287 63 Q376 63 410.5 113 Q445 163 445 257 L445 536 L533 536 Z M310 606 Q261 606 231 634 Q201 662 201 712 Q201 762 231 789.5 Q261 817 310 817 Q357 817 389 789.5 Q421 762 421 713 Q421 662 389.5 634 Q358 606 310 606 Z M310 656 Q335 656 350.5 671 Q366 686 366 712 Q366 738 350 753 Q334 768 310 768 Q286 768 270 753 Q254 738 254 712 Q254 686 268.5 671 Q283 656 310 656 Z " />
<glyph glyph-name="Uhungarumlaut#0" unicode="&#x170;" horiz-adv-x="731" d="M640 714 L640 252 Q640 178 610 118.5 Q580 59 518.5 24.5 Q457 -10 362 -10 Q229 -10 159.5 62.5 Q90 135 90 254 L90 714 L180 714 L180 251 Q180 164 226.5 116 Q273 68 367 68 Q464 68 507.5 119.5 Q551 171 551 252 L551 714 L640 714 Z M601 944 L601 934 Q591 916 568 887.5 Q545 859 518 830.5 Q491 802 468 784 L418 784 L418 796 Q432 815 448 841 Q464 867 479.5 894.5 Q495 922 505 944 L601 944 Z M425 944 L425 934 Q415 916 392 887.5 Q369 859 342 830.5 Q315 802 292 784 L242 784 L242 796 Q263 825 288 867.5 Q313 910 329 944 L425 944 Z " />
<glyph glyph-name="uhungarumlaut#0" unicode="&#x171;" horiz-adv-x="618" d="M533 536 L533 0 L461 0 L448 71 L444 71 Q418 29 372 9.5 Q326 -10 274 -10 Q177 -10 128 36.5 Q79 83 79 185 L79 536 L168 536 L168 191 Q168 63 287 63 Q376 63 410.5 113 Q445 163 445 257 L445 536 L533 536 Z M544 766 L544 756 Q534 738 511 709.5 Q488 681 461 652.5 Q434 624 411 606 L361 606 L361 618 Q375 637 391 663 Q407 689 422.5 716.5 Q438 744 448 766 L544 766 Z M368 766 L368 756 Q358 738 335 709.5 Q312 681 285 652.5 Q258 624 235 606 L185 606 L185 618 Q206 647 231 689.5 Q256 732 272 766 L368 766 Z " />
<glyph glyph-name="Uogonek#0" unicode="&#x172;" horiz-adv-x="731" d="M466 -107 Q466 -136 478 -148.5 Q490 -161 511 -161 Q528 -161 539.5 -158.5 Q551 -156 559 -155 L559 -211 Q545 -215 531 -217.5 Q517 -220 497 -220 Q444 -220 419 -194 Q394 -168 394 -117 Q394 -85 410 -54.5 Q426 -24 449 1 Q472 26 492 40 L555 51 Q509 -1 487.5 -36.5 Q466 -72 466 -107 Z M640 714 L640 252 Q640 178 610 118.5 Q580 59 518.5 24.5 Q457 -10 362 -10 Q229 -10 159.5 62.5 Q90 135 90 254 L90 714 L180 714 L180 251 Q180 164 226.5 116 Q273 68 367 68 Q464 68 507.5 119.5 Q551 171 551 252 L551 714 L640 714 Z " />
<glyph glyph-name="uogonek#0" unicode="&#x173;" horiz-adv-x="618" d="M533 536 L533 0 L461 0 L448 71 L444 71 Q418 29 372 9.5 Q326 -10 274 -10 Q177 -10 128 36.5 Q79 83 79 185 L79 536 L168 536 L168 191 Q168 63 287 63 Q376 63 410.5 113 Q445 163 445 257 L445 536 L533 536 Z M448 -116 Q448 -161 493 -161 Q510 -161 521.5 -158.5 Q533 -156 541 -155 L541 -211 Q527 -215 513 -217.5 Q499 -220 479 -220 Q426 -220 401 -195 Q376 -170 376 -126 Q376 -97 390.5 -70 Q405 -43 426.5 -21 Q448 1 468 15 L516 0 Q482 -32 465 -58.5 Q448 -85 448 -116 Z " />
<glyph glyph-name="Wcircumflex#0" unicode="&#x174;" horiz-adv-x="930" d="M917 714 L727 0 L636 0 L497 468 Q489 497 481 526 Q473 555 468 577.5 Q463 600 461 609 Q460 596 450.5 553.5 Q441 511 427 465 L292 0 L201 0 L12 714 L106 714 L217 278 Q229 232 237.5 189 Q246 146 251 108 Q256 147 266 193 Q276 239 289 283 L415 714 L508 714 L639 280 Q653 234 663 188.5 Q673 143 678 108 Q683 145 692 188.5 Q701 232 713 279 L823 714 L917 714 Z M511 944 Q523 922 545.5 894.5 Q568 867 592.5 840.5 Q617 814 636 795 L636 784 L574 784 Q548 800 520 823.5 Q492 847 465 874 Q438 847 411 824 Q384 801 358 784 L298 784 L298 795 Q316 815 340 841 Q364 867 386 894.5 Q408 922 421 944 L511 944 Z " />
<glyph glyph-name="wcircumflex#0" unicode="&#x175;" horiz-adv-x="786" d="M523 1 L431 303 Q418 344 408.5 383.5 Q399 423 394 445 L390 445 Q386 423 377 383.5 Q368 344 354 302 L258 1 L158 1 L11 537 L102 537 L176 251 Q187 208 197 164 Q207 120 211 91 L215 91 Q218 108 224 133 Q230 158 237 185.5 Q244 213 251 235 L346 537 L442 537 L534 235 Q545 201 555.5 161 Q566 121 570 92 L574 92 Q577 117 587.5 161 Q598 205 610 251 L685 537 L775 537 L626 1 L523 1 Z M439 766 Q451 744 473.5 716.5 Q496 689 520.5 662.5 Q545 636 564 617 L564 606 L502 606 Q476 622 448 645.5 Q420 669 393 696 Q366 669 339 646 Q312 623 286 606 L226 606 L226 617 Q244 637 268 663 Q292 689 314 716.5 Q336 744 349 766 L439 766 Z " />
<glyph glyph-name="Ycircumflex#0" unicode="&#x176;" horiz-adv-x="566" d="M283 363 L469 714 L566 714 L328 277 L328 0 L238 0 L238 273 L0 714 L98 714 L283 363 Z M329 944 Q341 922 363.5 894.5 Q386 867 410.5 840.5 Q435 814 454 795 L454 784 L392 784 Q366 800 338 823.5 Q310 847 283 874 Q256 847 229 824 Q202 801 176 784 L116 784 L116 795 Q134 815 158 841 Q182 867 204 894.5 Q226 922 239 944 L329 944 Z " />
<glyph glyph-name="ycircumflex#0" unicode="&#x177;" horiz-adv-x="510" d="M1 536 L95 536 L211 231 Q226 191 238 154.5 Q250 118 256 85 L260 85 Q266 110 279 150.5 Q292 191 306 232 L415 536 L510 536 L279 -74 Q251 -150 206.5 -195 Q162 -240 84 -240 Q60 -240 42 -237.5 Q24 -235 11 -232 L11 -162 Q22 -164 37.5 -166 Q53 -168 70 -168 Q116 -168 144.5 -142 Q173 -116 189 -73 L217 -2 L1 536 Z M301 766 Q313 744 335.5 716.5 Q358 689 382.5 662.5 Q407 636 426 617 L426 606 L364 606 Q338 622 310 645.5 Q282 669 255 696 Q228 669 201 646 Q174 623 148 606 L88 606 L88 617 Q106 637 130 663 Q154 689 176 716.5 Q198 744 211 766 L301 766 Z " />
<glyph glyph-name="Ydieresis#0" unicode="&#x178;" horiz-adv-x="566" d="M283 363 L469 714 L566 714 L328 277 L328 0 L238 0 L238 273 L0 714 L98 714 L283 363 Z M142 859 Q142 885 156 896.5 Q170 908 189 908 Q208 908 222 896.5 Q236 885 236 859 Q236 834 222 821.5 Q208 809 189 809 Q170 809 156 821.5 Q142 834 142 859 Z M330 859 Q330 885 343.5 896.5 Q357 908 376 908 Q395 908 409 896.5 Q423 885 423 859 Q423 834 409 821.5 Q395 809 376 809 Q357 809 343.5 821.5 Q330 834 330 859 Z " />
<glyph glyph-name="Zacute#0" unicode="&#x179;" horiz-adv-x="572" d="M533 0 L38 0 L38 68 L414 634 L50 634 L50 714 L523 714 L523 646 L147 80 L533 80 L533 0 Z M431 944 L431 934 Q419 916 394 887.5 Q369 859 340 830.5 Q311 802 288 784 L230 784 L230 796 Q245 814 262.5 840.5 Q280 867 297 894.5 Q314 922 325 944 L431 944 Z " />
<glyph glyph-name="zacute#0" unicode="&#x17a;" horiz-adv-x="470" d="M431 0 L39 0 L39 58 L327 468 L56 468 L56 536 L424 536 L424 470 L140 68 L431 68 L431 0 Z M376 766 L376 756 Q364 738 339 709.5 Q314 681 285 652.5 Q256 624 233 606 L175 606 L175 618 Q190 636 207.5 662.5 Q225 689 242 716.5 Q259 744 270 766 L376 766 Z " />
<glyph glyph-name="Zdotaccent#0" unicode="&#x17b;" horiz-adv-x="572" d="M533 0 L38 0 L38 68 L414 634 L50 634 L50 714 L523 714 L523 646 L147 80 L533 80 L533 0 Z M293 915 Q313 915 328.5 901.5 Q344 888 344 859 Q344 831 328.5 817 Q313 803 293 803 Q271 803 256 817 Q241 831 241 859 Q241 888 256 901.5 Q271 915 293 915 Z " />
<glyph glyph-name="zdotaccent#0" unicode="&#x17c;" horiz-adv-x="470" d="M431 0 L39 0 L39 58 L327 468 L56 468 L56 536 L424 536 L424 470 L140 68 L431 68 L431 0 Z M238 737 Q258 737 273.5 723.5 Q289 710 289 681 Q289 653 273.5 639 Q258 625 238 625 Q216 625 201 639 Q186 653 186 681 Q186 710 201 723.5 Q216 737 238 737 Z " />
<glyph glyph-name="Zcaron#0" unicode="&#x17d;" horiz-adv-x="572" d="M533 0 L38 0 L38 68 L414 634 L50 634 L50 714 L523 714 L523 646 L147 80 L533 80 L533 0 Z M244 784 Q231 807 209 833.5 Q187 860 163 886 Q139 912 121 931 L121 944 L181 944 Q207 927 235 903 Q263 879 288 852 Q315 879 343 903 Q371 927 397 944 L459 944 L459 931 Q440 912 415.5 886 Q391 860 368.5 833.5 Q346 807 334 784 L244 784 Z " />
<glyph glyph-name="zcaron#0" unicode="&#x17e;" horiz-adv-x="470" d="M431 0 L39 0 L39 58 L327 468 L56 468 L56 536 L424 536 L424 470 L140 68 L431 68 L431 0 Z M189 606 Q176 629 154 655.5 Q132 682 108 708 Q84 734 66 753 L66 766 L126 766 Q152 749 180 725 Q208 701 233 674 Q260 701 288 725 Q316 749 342 766 L404 766 L404 753 Q385 734 360.5 708 Q336 682 313.5 655.5 Q291 629 279 606 L189 606 Z " />
<glyph glyph-name="longs#0" unicode="&#x17f;" horiz-adv-x="326" d="M261 692 Q220 692 196.5 666 Q173 640 173 577 L173 0 L85 0 L85 577 Q85 680 133.5 722.5 Q182 765 262 765 Q293 765 318 759.5 Q343 754 362 746 L339 677 Q323 682 302 687 Q281 692 261 692 Z " />
<glyph glyph-name="florin#0" unicode="&#x192;" horiz-adv-x="414" d="M130 -15 Q66 -15 26.5 20 Q-13 55 -13 114 Q-13 124 -12 135 Q-11 146 -8 157 L67 141 Q66 137 65.5 131.5 Q65 126 65 120 Q65 89 81.5 73.5 Q98 58 120 58 Q148 58 163.5 77 Q179 96 179 145 L179 468 L85 468 L85 509 L179 539 L179 570 Q179 674 225 719.5 Q271 765 353 765 Q385 765 411.5 759.5 Q438 754 457 747 L434 678 Q418 683 397 688 Q376 693 354 693 Q310 693 288.5 663.5 Q267 634 267 571 L267 536 L402 536 L402 468 L267 468 L267 148 Q267 72 233.5 28.5 Q200 -15 130 -15 Z " />
<glyph glyph-name="Aringacute#0" unicode="&#x1fa;" horiz-adv-x="640" d="M271 829 L271 838 Q292 862 316 896 Q340 930 356 958 L462 958 L462 950 Q452 935 429 912.5 Q406 890 379 867 Q352 844 330 829 L271 829 Z M0 0 L258 608 Q209 635 209 698 Q209 748 239.5 776 Q270 804 318 804 Q365 804 397.5 776.5 Q430 749 430 699 Q430 668 417 645 Q404 622 382 609 L640 0 L547 0 L465 192 L170 192 L92 0 L0 0 Z M318 642 Q343 642 358.5 656.5 Q374 671 374 698 Q374 725 358.5 739.5 Q343 754 318 754 Q294 754 278 739.5 Q262 725 262 698 Q262 672 276.5 657 Q291 642 318 642 Z M201 272 L439 272 L355 479 Q348 497 337.5 525 Q327 553 319 580 Q311 553 301 523.5 Q291 494 284 477 L201 272 Z " />
<glyph glyph-name="aringacute#0" unicode="&#x1fb;" horiz-adv-x="561" d="M446 958 L446 952 Q436 940 408 922 Q380 904 348 886 Q316 868 293 856 L230 856 L230 864 Q251 883 275 909.5 Q299 936 315 958 L446 958 Z M285 817 Q332 817 364 789.5 Q396 762 396 713 Q396 662 364.5 634 Q333 606 285 606 Q236 606 206 634 Q176 662 176 712 Q176 762 206 789.5 Q236 817 285 817 Z M285 768 Q261 768 245 753 Q229 738 229 712 Q229 686 243.5 671 Q258 656 285 656 Q310 656 325.5 671 Q341 686 341 712 Q341 738 325 753 Q309 768 285 768 Z M288 545 Q386 545 433 502 Q480 459 480 365 L480 0 L416 0 L399 76 L395 76 Q360 32 321.5 11 Q283 -10 215 -10 Q142 -10 94 28.5 Q46 67 46 149 Q46 229 109 272.5 Q172 316 303 320 L394 323 L394 355 Q394 422 365 448 Q336 474 283 474 Q241 474 203 461.5 Q165 449 132 433 L105 499 Q140 518 188 531.5 Q236 545 288 545 Z M393 262 L314 259 Q214 255 175.5 227 Q137 199 137 148 Q137 103 164.5 82 Q192 61 235 61 Q303 61 348 98.5 Q393 136 393 214 L393 262 Z " />
<glyph glyph-name="AEacute#0" unicode="&#x1fc;" horiz-adv-x="881" d="M821 0 L449 0 L449 221 L199 221 L92 0 L-1 0 L338 714 L821 714 L821 635 L539 635 L539 412 L802 412 L802 334 L539 334 L539 79 L821 79 L821 0 Z M234 301 L449 301 L449 634 L391 634 L234 301 Z M634 944 L634 934 Q622 916 597 887.5 Q572 859 543 830.5 Q514 802 491 784 L433 784 L433 796 Q448 814 465.5 840.5 Q483 867 500 894.5 Q517 922 528 944 L634 944 Z " />
<glyph glyph-name="aeacute#0" unicode="&#x1fd;" horiz-adv-x="864" d="M603 546 Q668 546 715 516 Q762 486 787.5 431.5 Q813 377 813 306 L813 252 L470 252 Q472 156 511.5 110.5 Q551 65 625 65 Q675 65 713 74.5 Q751 84 789 102 L789 25 Q749 7 710.5 -1.5 Q672 -10 622 -10 Q481 -10 419 103 Q385 51 339 20.5 Q293 -10 216 -10 Q143 -10 94.5 28.5 Q46 67 46 149 Q46 229 106 272.5 Q166 316 290 320 L380 323 L380 357 Q380 422 349.5 448 Q319 474 268 474 Q228 474 189.5 462 Q151 450 118 433 L91 499 Q126 519 176 532 Q226 545 275 545 Q337 545 377.5 524.5 Q418 504 439 459 Q465 500 507 523 Q549 546 603 546 Z M602 474 Q544 474 510.5 434.5 Q477 395 472 321 L720 321 Q720 390 691.5 432 Q663 474 602 474 Z M378 262 L303 259 Q209 255 173 227 Q137 199 137 148 Q137 103 162.5 82 Q188 61 230 61 Q293 61 335.5 98.5 Q378 136 378 214 L378 262 Z M580 766 L580 756 Q568 738 543 709.5 Q518 681 489 652.5 Q460 624 437 606 L379 606 L379 618 Q394 636 411.5 662.5 Q429 689 446 716.5 Q463 744 474 766 L580 766 Z " />
<glyph glyph-name="Oslashacute#0" unicode="&#x1fe;" horiz-adv-x="781" d="M720 358 Q720 247 682.5 164.5 Q645 82 571.5 36 Q498 -10 391 -10 Q279 -10 206 37 L158 -31 L97 9 L149 83 Q105 132 83 202 Q61 272 61 359 Q61 469 97 551 Q133 633 206.5 679 Q280 725 392 725 Q444 725 488.5 713 Q533 701 570 680 L616 746 L677 705 L626 634 Q720 535 720 358 Z M156 358 Q156 297 167.5 247 Q179 197 203 160 L522 611 Q470 646 392 646 Q271 646 213.5 569.5 Q156 493 156 358 Z M625 358 Q625 487 574 560 L254 106 Q280 88 314.5 78 Q349 68 391 68 Q513 68 569 145.5 Q625 223 625 358 Z M533 944 L533 934 Q521 916 496 887.5 Q471 859 442 830.5 Q413 802 390 784 L332 784 L332 796 Q347 814 364.5 840.5 Q382 867 399 894.5 Q416 922 427 944 L533 944 Z " />
<glyph glyph-name="oslashacute#0" unicode="&#x1ff;" horiz-adv-x="605" d="M551 269 Q551 136 483.5 63 Q416 -10 301 -10 Q228 -10 172 23 L132 -33 L74 6 L119 68 Q88 104 71.5 154.5 Q55 205 55 269 Q55 402 122 474 Q189 546 304 546 Q377 546 435 510 L474 566 L533 528 L488 465 Q517 430 534 380.5 Q551 331 551 269 Z M146 269 Q146 231 151.5 198.5 Q157 166 170 141 L390 447 Q354 472 302 472 Q220 472 183 418 Q146 364 146 269 Z M460 269 Q460 343 437 392 L217 86 Q251 63 303 63 Q384 63 422 118.5 Q460 174 460 269 Z M444 766 L444 756 Q432 738 407 709.5 Q382 681 353 652.5 Q324 624 301 606 L243 606 L243 618 Q258 636 275.5 662.5 Q293 689 310 716.5 Q327 744 338 766 L444 766 Z " />
<glyph glyph-name="uni0218#0" unicode="&#x218;" horiz-adv-x="549" d="M502 191 Q502 96 433 43 Q364 -10 247 -10 Q187 -10 136 -1 Q85 8 51 24 L51 110 Q87 94 140.5 81 Q194 68 251 68 Q331 68 371.5 99 Q412 130 412 183 Q412 218 397 242 Q382 266 345.5 286.5 Q309 307 244 330 Q153 363 106.5 411 Q60 459 60 542 Q60 599 89 639.5 Q118 680 169.5 702 Q221 724 288 724 Q347 724 396 713 Q445 702 485 684 L457 607 Q420 623 376.5 634 Q333 645 286 645 Q219 645 185 616.5 Q151 588 151 541 Q151 505 166 481 Q181 457 215 438 Q249 419 307 397 Q370 374 413.5 347.5 Q457 321 479.5 284 Q502 247 502 191 Z M321 -61 L321 -70 Q317 -88 304.5 -115.5 Q292 -143 275.5 -171 Q259 -199 241 -221 L193 -221 L193 -209 Q201 -192 209.5 -165.5 Q218 -139 224.5 -110.5 Q231 -82 234 -61 L321 -61 Z " />
<glyph glyph-name="uni0219#0" unicode="&#x219;" horiz-adv-x="479" d="M434 148 Q434 70 376 30 Q318 -10 220 -10 Q164 -10 123.5 -1 Q83 8 52 24 L52 104 Q84 88 129.5 74.5 Q175 61 222 61 Q289 61 319 82.5 Q349 104 349 140 Q349 160 338 176 Q327 192 298.5 208 Q270 224 217 244 Q165 264 128 284 Q91 304 71 332 Q51 360 51 404 Q51 472 106.5 509 Q162 546 252 546 Q301 546 343.5 536.5 Q386 527 423 510 L393 440 Q359 454 322 464 Q285 474 246 474 Q192 474 163.5 456.5 Q135 439 135 409 Q135 387 148 371.5 Q161 356 191.5 341.5 Q222 327 273 307 Q324 288 360 268 Q396 248 415 219.5 Q434 191 434 148 Z M304 -61 L304 -70 Q300 -88 287.5 -115.5 Q275 -143 258.5 -171 Q242 -199 224 -221 L176 -221 L176 -209 Q184 -192 192.5 -165.5 Q201 -139 207.5 -110.5 Q214 -82 217 -61 L304 -61 Z " />
<glyph glyph-name="circumflex#0" unicode="&#x2c6;" horiz-adv-x="418" d="M253 766 Q265 744 287.5 716.5 Q310 689 334.5 662.5 Q359 636 378 617 L378 606 L316 606 Q290 622 262 645.5 Q234 669 207 696 Q180 669 153 646 Q126 623 100 606 L40 606 L40 617 Q58 637 82 663 Q106 689 128 716.5 Q150 744 163 766 L253 766 Z " />
<glyph glyph-name="caron#0" unicode="&#x2c7;" horiz-adv-x="418" d="M163 606 Q150 629 128 655.5 Q106 682 82 708 Q58 734 40 753 L40 766 L100 766 Q126 749 154 725 Q182 701 207 674 Q234 701 262 725 Q290 749 316 766 L378 766 L378 753 Q359 734 334.5 708 Q310 682 287.5 655.5 Q265 629 253 606 L163 606 Z " />
<glyph glyph-name="macron#0" unicode="&#x2c9;" horiz-adv-x="377" d="M337 677 L337 606 L40 606 L40 677 L337 677 Z " />
<glyph glyph-name="breve#0" unicode="&#x2d8;" horiz-adv-x="391" d="M351 740 Q346 680 305.5 643 Q265 606 193 606 Q119 606 81.5 642.5 Q44 679 40 740 L94 740 Q99 699 124 688 Q149 677 195 677 Q234 677 262.5 689 Q291 701 296 740 L351 740 Z " />
<glyph glyph-name="dotaccent#0" unicode="&#x2d9;" horiz-adv-x="183" d="M92 737 Q112 737 127.5 723.5 Q143 710 143 681 Q143 653 127.5 639 Q112 625 92 625 Q70 625 55 639 Q40 653 40 681 Q40 710 55 723.5 Q70 737 92 737 Z " />
<glyph glyph-name="ring#0" unicode="&#x2da;" horiz-adv-x="300" d="M149 606 Q100 606 70 634 Q40 662 40 712 Q40 762 70 789.5 Q100 817 149 817 Q196 817 228 789.5 Q260 762 260 713 Q260 662 228.5 634 Q197 606 149 606 Z M149 656 Q174 656 189.5 671 Q205 686 205 712 Q205 738 189 753 Q173 768 149 768 Q125 768 109 753 Q93 738 93 712 Q93 686 107.5 671 Q122 656 149 656 Z " />
<glyph glyph-name="ogonek#0" unicode="&#x2db;" horiz-adv-x="245" d="M112 -116 Q112 -161 157 -161 Q174 -161 185.5 -158.5 Q197 -156 205 -155 L205 -211 Q191 -215 177 -217.5 Q163 -220 143 -220 Q90 -220 65 -195 Q40 -170 40 -126 Q40 -97 54.5 -70 Q69 -43 90.5 -21 Q112 1 132 15 L180 0 Q146 -32 129 -58.5 Q112 -85 112 -116 Z " />
<glyph glyph-name="tilde#0" unicode="&#x2dc;" horiz-adv-x="447" d="M40 606 Q46 665 74.5 699.5 Q103 734 150 734 Q180 734 206.5 719.5 Q233 705 257 691 Q281 677 302 677 Q325 677 337.5 691.5 Q350 706 357 735 L407 735 Q401 677 373 642 Q345 607 298 607 Q270 607 243.5 621 Q217 635 192.5 649.5 Q168 664 146 664 Q122 664 110 649.5 Q98 635 91 606 L40 606 Z " />
<glyph glyph-name="hungarumlaut#0" unicode="&#x2dd;" horiz-adv-x="439" d="M399 766 L399 756 Q389 738 366 709.5 Q343 681 316 652.5 Q289 624 266 606 L216 606 L216 618 Q230 637 246 663 Q262 689 277.5 716.5 Q293 744 303 766 L399 766 Z M223 766 L223 756 Q213 738 190 709.5 Q167 681 140 652.5 Q113 624 90 606 L40 606 L40 618 Q61 647 86 689.5 Q111 732 127 766 L223 766 Z " />
<glyph glyph-name="tonos#0" unicode="&#x384;" horiz-adv-x="577" d="M253 606 L253 620 Q262 644 271 677 Q280 710 287 744 Q294 778 298 805 L392 805 L392 794 Q387 772 373 738.5 Q359 705 341 669.5 Q323 634 306 606 L253 606 Z " />
<glyph glyph-name="dieresistonos#0" unicode="&#x385;" horiz-adv-x="577" d="M395 838 L395 828 Q379 797 352 755 Q325 713 296 678 L254 678 L254 690 Q265 720 278.5 762 Q292 804 299 838 L395 838 Z M184 730 Q203 730 216.5 718.5 Q230 707 230 681 Q230 656 216.5 643.5 Q203 631 184 631 Q165 631 151.5 643.5 Q138 656 138 681 Q138 707 151.5 718.5 Q165 730 184 730 Z M403 730 Q421 730 435 718.5 Q449 707 449 681 Q449 656 435 643.5 Q421 631 403 631 Q383 631 370 643.5 Q357 656 357 681 Q357 707 370 718.5 Q383 730 403 730 Z " />
<glyph glyph-name="Alphatonos#0" unicode="&#x386;" horiz-adv-x="639" d="M545 0 L459 221 L176 221 L91 0 L0 0 L279 717 L360 717 L638 0 L545 0 Z M432 301 L352 517 Q349 525 342 546 Q335 567 328.5 589.5 Q322 612 318 624 Q311 593 302 563.5 Q293 534 287 517 L206 301 L432 301 Z M9 553 L9 567 Q18 591 27 624 Q36 657 43 691 Q50 725 54 752 L148 752 L148 741 Q143 719 129 685.5 Q115 652 97 616.5 Q79 581 62 553 L9 553 Z " />
<glyph glyph-name="anoteleia#0" unicode="&#x387;" horiz-adv-x="268" d="M72 483 Q72 520 90 535 Q108 550 133 550 Q159 550 177.5 535 Q196 520 196 483 Q196 447 177.5 431 Q159 415 133 415 Q108 415 90 431 Q72 447 72 483 Z " />
<glyph glyph-name="Epsilontonos#0" unicode="&#x388;" horiz-adv-x="641" d="M581 0 L182 0 L182 714 L581 714 L581 635 L272 635 L272 412 L563 412 L563 334 L272 334 L272 79 L581 79 L581 0 Z M-1 553 L-1 567 Q8 591 17 624 Q26 657 33 691 Q40 725 44 752 L138 752 L138 741 Q133 719 119 685.5 Q105 652 87 616.5 Q69 581 52 553 L-1 553 Z " />
<glyph glyph-name="Etatonos#0" unicode="&#x389;" horiz-adv-x="826" d="M728 0 L638 0 L638 333 L272 333 L272 0 L182 0 L182 714 L272 714 L272 412 L638 412 L638 714 L728 714 L728 0 Z M-1 553 L-1 567 Q8 591 17 624 Q26 657 33 691 Q40 725 44 752 L138 752 L138 741 Q133 719 119 685.5 Q105 652 87 616.5 Q69 581 52 553 L-1 553 Z " />
<glyph glyph-name="Omicrontonos#0" unicode="&#x38c;" horiz-adv-x="827" d="M766 358 Q766 247 728.5 164.5 Q691 82 617.5 36 Q544 -10 437 -10 Q325 -10 252 36 Q179 82 143 165 Q107 248 107 359 Q107 469 143 551 Q179 633 252.5 679 Q326 725 438 725 Q545 725 618 679.5 Q691 634 728.5 551.5 Q766 469 766 358 Z M202 358 Q202 223 259 145.5 Q316 68 437 68 Q559 68 615 145.5 Q671 223 671 358 Q671 493 615 569.5 Q559 646 438 646 Q317 646 259.5 569.5 Q202 493 202 358 Z M-1 553 L-1 567 Q8 591 17 624 Q26 657 33 691 Q40 725 44 752 L138 752 L138 741 Q133 719 119 685.5 Q105 652 87 616.5 Q69 581 52 553 L-1 553 Z " />
<glyph glyph-name="Upsilontonos#0" unicode="&#x38e;" horiz-adv-x="721" d="M438 363 L624 714 L721 714 L483 277 L483 0 L393 0 L393 273 L155 714 L253 714 L438 363 Z M-1 553 L-1 567 Q8 591 17 624 Q26 657 33 691 Q40 725 44 752 L138 752 L138 741 Q133 719 119 685.5 Q105 652 87 616.5 Q69 581 52 553 L-1 553 Z " />
<glyph glyph-name="Omegatonos#0" unicode="&#x38f;" horiz-adv-x="819" d="M428 646 Q308 646 252 580.5 Q196 515 196 401 Q196 301 233 220 Q270 139 363 72 L363 0 L75 0 L75 79 L253 79 Q189 128 145 210 Q101 292 101 404 Q101 502 139 574 Q177 646 250.5 685.5 Q324 725 428 725 Q534 725 607 686 Q680 647 718 575 Q756 503 756 405 Q756 293 712.5 210.5 Q669 128 605 79 L782 79 L782 0 L494 0 L494 72 Q587 138 624.5 220 Q662 302 662 401 Q662 515 605.5 580.5 Q549 646 428 646 Z M-8 554 L-8 568 Q1 592 10 625 Q19 658 26 692 Q33 726 37 753 L131 753 L131 742 Q126 720 112 686.5 Q98 653 80 617.5 Q62 582 45 554 L-8 554 Z " />
<glyph glyph-name="iotadieresistonos#0" unicode="&#x390;" horiz-adv-x="346" d="M169 536 L169 158 Q169 110 187.5 86 Q206 62 246 62 Q268 62 291.5 65.5 Q315 69 328 73 L328 6 Q314 -1 287 -5.5 Q260 -10 234 -10 Q190 -10 155.5 4.5 Q121 19 101.5 55.5 Q82 92 82 157 L82 536 L169 536 Z M236 838 L236 828 Q220 797 193 755 Q166 713 137 678 L95 678 L95 690 Q106 720 119.5 762 Q133 804 140 838 L236 838 Z M25 730 Q44 730 57.5 718.5 Q71 707 71 681 Q71 656 57.5 643.5 Q44 631 25 631 Q6 631 -7.5 643.5 Q-21 656 -21 681 Q-21 707 -7.5 718.5 Q6 730 25 730 Z M244 730 Q262 730 276 718.5 Q290 707 290 681 Q290 656 276 643.5 Q262 631 244 631 Q224 631 211 643.5 Q198 656 198 681 Q198 707 211 718.5 Q224 730 244 730 Z " />
<glyph glyph-name="Alpha#0" unicode="&#x391;" horiz-adv-x="639" d="M545 0 L459 221 L176 221 L91 0 L0 0 L279 717 L360 717 L638 0 L545 0 Z M432 301 L352 517 Q349 525 342 546 Q335 567 328.5 589.5 Q322 612 318 624 Q311 593 302 563.5 Q293 534 287 517 L206 301 L432 301 Z " />
<glyph glyph-name="Beta#0" unicode="&#x392;" horiz-adv-x="650" d="M97 714 L301 714 Q435 714 503.5 674.5 Q572 635 572 537 Q572 474 537 432.5 Q502 391 436 379 L436 374 Q481 367 517.5 348 Q554 329 575 294 Q596 259 596 203 Q596 106 529.5 53 Q463 0 348 0 L97 0 L97 714 Z M187 410 L319 410 Q411 410 445 439.5 Q479 469 479 527 Q479 586 437.5 611.5 Q396 637 305 637 L187 637 L187 410 Z M187 335 L187 76 L331 76 Q426 76 463 113 Q500 150 500 210 Q500 266 461.5 300.5 Q423 335 324 335 L187 335 Z " />
<glyph glyph-name="Gamma#0" unicode="&#x393;" horiz-adv-x="524" d="M500 714 L500 634 L187 634 L187 0 L97 0 L97 714 L500 714 Z " />
<glyph glyph-name="uni0394#0" unicode="&#x394;" horiz-adv-x="581" d="M335 714 L561 54 L561 0 L20 0 L20 55 L245 714 L335 714 Z M462 79 L337 451 Q322 496 309.5 538 Q297 580 289 616 Q280 580 268.5 538.5 Q257 497 243 455 L116 79 L462 79 Z " />
<glyph glyph-name="Epsilon#0" unicode="&#x395;" horiz-adv-x="556" d="M496 0 L97 0 L97 714 L496 714 L496 635 L187 635 L187 412 L478 412 L478 334 L187 334 L187 79 L496 79 L496 0 Z " />
<glyph glyph-name="Zeta#0" unicode="&#x396;" horiz-adv-x="572" d="M533 0 L38 0 L38 68 L414 634 L50 634 L50 714 L523 714 L523 646 L147 80 L533 80 L533 0 Z " />
<glyph glyph-name="Eta#0" unicode="&#x397;" horiz-adv-x="741" d="M643 0 L553 0 L553 333 L187 333 L187 0 L97 0 L97 714 L187 714 L187 412 L553 412 L553 714 L643 714 L643 0 Z " />
<glyph glyph-name="Theta#0" unicode="&#x398;" horiz-adv-x="781" d="M541 402 L541 324 L239 324 L239 402 L541 402 Z M720 358 Q720 247 682.5 164.5 Q645 82 571.5 36 Q498 -10 391 -10 Q279 -10 206 36 Q133 82 97 165 Q61 248 61 359 Q61 469 97 551 Q133 633 206.5 679 Q280 725 392 725 Q499 725 572 679.5 Q645 634 682.5 551.5 Q720 469 720 358 Z M156 358 Q156 223 213 145.5 Q270 68 391 68 Q513 68 569 145.5 Q625 223 625 358 Q625 493 569 569.5 Q513 646 392 646 Q271 646 213.5 569.5 Q156 493 156 358 Z " />
<glyph glyph-name="Kappa#0" unicode="&#x39a;" horiz-adv-x="619" d="M619 0 L513 0 L260 341 L187 277 L187 0 L97 0 L97 714 L187 714 L187 362 Q217 396 248 430 Q279 464 310 498 L503 714 L608 714 L325 403 L619 0 Z " />
<glyph glyph-name="Lambda#0" unicode="&#x39b;" horiz-adv-x="608" d="M350 714 L607 0 L512 0 L354 450 Q338 497 324.5 538.5 Q311 580 302 616 Q295 580 281.5 538 Q268 496 252 451 L95 0 L0 0 L256 714 L350 714 Z " />
<glyph glyph-name="Mu#0" unicode="&#x39c;" horiz-adv-x="907" d="M412 0 L177 626 L173 626 Q176 595 178 542.5 Q180 490 180 433 L180 0 L97 0 L97 714 L230 714 L450 129 L454 129 L678 714 L810 714 L810 0 L721 0 L721 439 Q721 491 723.5 542 Q726 593 728 625 L724 625 L486 0 L412 0 Z " />
<glyph glyph-name="Nu#0" unicode="&#x39d;" horiz-adv-x="760" d="M663 0 L558 0 L176 593 L172 593 Q174 558 177 506 Q180 454 180 399 L180 0 L97 0 L97 714 L201 714 L582 123 L586 123 Q585 139 583.5 171 Q582 203 580.5 241 Q579 279 579 311 L579 714 L663 714 L663 0 Z " />
<glyph glyph-name="Xi#0" unicode="&#x39e;" horiz-adv-x="555" d="M55 635 L55 714 L499 714 L499 635 L55 635 Z M95 334 L95 412 L459 412 L459 334 L95 334 Z M35 0 L35 79 L519 79 L519 0 L35 0 Z " />
<glyph glyph-name="Omicron#0" unicode="&#x39f;" horiz-adv-x="781" d="M720 358 Q720 247 682.5 164.5 Q645 82 571.5 36 Q498 -10 391 -10 Q279 -10 206 36 Q133 82 97 165 Q61 248 61 359 Q61 469 97 551 Q133 633 206.5 679 Q280 725 392 725 Q499 725 572 679.5 Q645 634 682.5 551.5 Q720 469 720 358 Z M156 358 Q156 223 213 145.5 Q270 68 391 68 Q513 68 569 145.5 Q625 223 625 358 Q625 493 569 569.5 Q513 646 392 646 Q271 646 213.5 569.5 Q156 493 156 358 Z " />
<glyph glyph-name="Pi#0" unicode="&#x3a0;" horiz-adv-x="731" d="M97 0 L97 714 L633 714 L633 0 L544 0 L544 635 L187 635 L187 0 L97 0 Z " />
<glyph glyph-name="Rho#0" unicode="&#x3a1;" horiz-adv-x="605" d="M286 714 Q426 714 490 659 Q554 604 554 504 Q554 445 527.5 393.5 Q501 342 438.5 310 Q376 278 269 278 L187 278 L187 0 L97 0 L97 714 L286 714 Z M278 637 L187 637 L187 355 L259 355 Q361 355 411 388 Q461 421 461 500 Q461 569 417 603 Q373 637 278 637 Z " />
<glyph glyph-name="Sigma#0" unicode="&#x3a3;" horiz-adv-x="570" d="M36 0 L36 74 L270 373 L42 639 L42 714 L517 714 L517 634 L262 634 Q247 634 223.5 634 Q200 634 178 634.5 Q156 635 145 635 L370 374 L135 78 Q173 78 210.5 78.5 Q248 79 288 79 L546 79 L546 0 L36 0 Z " />
<glyph glyph-name="Tau#0" unicode="&#x3a4;" horiz-adv-x="556" d="M323 0 L233 0 L233 635 L10 635 L10 714 L545 714 L545 635 L323 635 L323 0 Z " />
<glyph glyph-name="Upsilon#0" unicode="&#x3a5;" horiz-adv-x="566" d="M283 363 L469 714 L566 714 L328 277 L328 0 L238 0 L238 273 L0 714 L98 714 L283 363 Z " />
<glyph glyph-name="Phi#0" unicode="&#x3a6;" horiz-adv-x="804" d="M446 724 L446 636 Q562 634 629 598 Q696 562 724 502.5 Q752 443 752 370 Q752 322 737.5 274.5 Q723 227 688 188.5 Q653 150 594 126 Q535 102 446 100 L446 -10 L357 -10 L357 100 Q266 102 206.5 126.5 Q147 151 113 190.5 Q79 230 65 277 Q51 324 51 370 Q51 441 79.5 500.5 Q108 560 175 597 Q242 634 357 636 L357 724 L446 724 Z M357 560 Q277 558 229.5 534 Q182 510 162 468.5 Q142 427 142 371 Q142 283 193.5 230.5 Q245 178 357 174 L357 560 Z M446 560 L446 174 Q562 178 611.5 231.5 Q661 285 661 371 Q661 427 641 469 Q621 511 574 534.5 Q527 558 446 560 Z " />
<glyph glyph-name="Chi#0" unicode="&#x3a7;" horiz-adv-x="586" d="M582 0 L480 0 L291 310 L99 0 L4 0 L241 372 L19 714 L119 714 L294 434 L470 714 L565 714 L344 374 L582 0 Z " />
<glyph glyph-name="Psi#0" unicode="&#x3a8;" horiz-adv-x="804" d="M751 714 L751 479 Q751 428 736.5 381 Q722 334 688 297 Q654 260 594.5 238.5 Q535 217 445 217 L445 0 L357 0 L357 217 Q267 217 207.5 239 Q148 261 114.5 298 Q81 335 67 382 Q53 429 53 478 L53 714 L143 714 L143 480 Q143 387 194 340.5 Q245 294 357 294 L357 714 L445 714 L445 294 Q559 294 609 340.5 Q659 387 659 478 L659 714 L751 714 Z " />
<glyph glyph-name="uni03A9#0" unicode="&#x3a9;" horiz-adv-x="782" d="M391 646 Q271 646 215 580.5 Q159 515 159 401 Q159 301 196 220 Q233 139 326 72 L326 0 L38 0 L38 79 L216 79 Q152 128 108 210 Q64 292 64 404 Q64 502 102 574 Q140 646 213.5 685.5 Q287 725 391 725 Q497 725 570 686 Q643 647 681 575 Q719 503 719 405 Q719 293 675.5 210.5 Q632 128 568 79 L745 79 L745 0 L457 0 L457 72 Q550 138 587.5 220 Q625 302 625 401 Q625 515 568.5 580.5 Q512 646 391 646 Z " />
<glyph glyph-name="Upsilondieresis#0" unicode="&#x3ab;" horiz-adv-x="566" d="M283 363 L469 714 L566 714 L328 277 L328 0 L238 0 L238 273 L0 714 L98 714 L283 363 Z M142 859 Q142 885 156 896.5 Q170 908 189 908 Q208 908 222 896.5 Q236 885 236 859 Q236 834 222 821.5 Q208 809 189 809 Q170 809 156 821.5 Q142 834 142 859 Z M330 859 Q330 885 343.5 896.5 Q357 908 376 908 Q395 908 409 896.5 Q423 885 423 859 Q423 834 409 821.5 Q395 809 376 809 Q357 809 343.5 821.5 Q330 834 330 859 Z " />
<glyph glyph-name="alphatonos#0" unicode="&#x3ac;" horiz-adv-x="615" d="M275 -10 Q177 -10 116 59.5 Q55 129 55 266 Q55 402 115 474 Q175 546 283 546 Q342 546 381.5 525.5 Q421 505 447 464 L453 464 Q458 481 466 501 Q474 521 485 536 L554 536 Q547 514 541 478 Q535 442 532 401.5 Q529 361 529 326 L529 118 Q529 87 541 74.5 Q553 62 570 62 Q578 62 587 64 Q596 66 600 67 L600 3 Q593 -1 577 -5.5 Q561 -10 544 -10 Q507 -10 483.5 8 Q460 26 449 72 L442 72 Q419 38 381 14 Q343 -10 275 -10 Z M290 63 Q373 63 407.5 110.5 Q442 158 442 261 L442 267 Q442 367 409.5 419.5 Q377 472 289 472 Q216 472 181 419 Q146 366 146 265 Q146 165 180.5 114 Q215 63 290 63 Z M272 606 L272 620 Q281 644 290 677 Q299 710 306 744 Q313 778 317 805 L411 805 L411 794 Q406 772 392 738.5 Q378 705 360 669.5 Q342 634 325 606 L272 606 Z " />
<glyph glyph-name="epsilontonos#0" unicode="&#x3ad;" horiz-adv-x="483" d="M355 315 L355 243 L282 243 Q131 243 131 151 Q131 102 172 82 Q213 62 273 62 Q329 62 371.5 75 Q414 88 447 104 L447 27 Q416 11 373 0.5 Q330 -10 268 -10 Q153 -10 98 34.5 Q43 79 43 146 Q43 186 59.5 211.5 Q76 237 103 252.5 Q130 268 162 277 L162 282 Q117 296 89.5 325.5 Q62 355 62 404 Q62 472 119.5 509 Q177 546 268 546 Q326 546 367.5 536 Q409 526 449 508 L416 438 Q383 453 348.5 463 Q314 473 267 473 Q146 473 146 397 Q146 353 187.5 334 Q229 315 299 315 L355 315 Z M229 606 L229 620 Q238 644 247 677 Q256 710 263 744 Q270 778 274 805 L368 805 L368 794 Q363 772 349 738.5 Q335 705 317 669.5 Q299 634 282 606 L229 606 Z " />
<glyph glyph-name="etatonos#0" unicode="&#x3ae;" horiz-adv-x="618" d="M343 546 Q439 546 488 499.5 Q537 453 537 349 L537 -240 L450 -240 L450 343 Q450 407 421 439.5 Q392 472 330 472 Q242 472 207.5 422 Q173 372 173 278 L173 0 L85 0 L85 536 L156 536 L169 463 L174 463 Q200 505 246 525.5 Q292 546 343 546 Z M287 606 L287 620 Q296 644 305 677 Q314 710 321 744 Q328 778 332 805 L426 805 L426 794 Q421 772 407 738.5 Q393 705 375 669.5 Q357 634 340 606 L287 606 Z " />
<glyph glyph-name="iotatonos#0" unicode="&#x3af;" horiz-adv-x="346" d="M169 536 L169 158 Q169 110 187.5 86 Q206 62 246 62 Q268 62 291.5 65.5 Q315 69 328 73 L328 6 Q314 -1 287 -5.5 Q260 -10 234 -10 Q190 -10 155.5 4.5 Q121 19 101.5 55.5 Q82 92 82 157 L82 536 L169 536 Z M91 606 L91 620 Q100 644 109 677 Q118 710 125 744 Q132 778 136 805 L230 805 L230 794 Q225 772 211 738.5 Q197 705 179 669.5 Q161 634 144 606 L91 606 Z " />
<glyph glyph-name="upsilondieresistonos#0" unicode="&#x3b0;" horiz-adv-x="613" d="M307 -10 Q218 -10 168.5 23.5 Q119 57 99 114 Q79 171 79 243 L79 536 L167 536 L167 246 Q167 161 202 111.5 Q237 62 314 62 Q394 62 432 119 Q470 176 470 296 Q470 366 462 421 Q454 476 439 536 L527 536 Q543 477 551 421.5 Q559 366 559 292 Q559 137 495.5 63.5 Q432 -10 307 -10 Z M414 838 L414 828 Q398 797 371 755 Q344 713 315 678 L273 678 L273 690 Q284 720 297.5 762 Q311 804 318 838 L414 838 Z M203 730 Q222 730 235.5 718.5 Q249 707 249 681 Q249 656 235.5 643.5 Q222 631 203 631 Q184 631 170.5 643.5 Q157 656 157 681 Q157 707 170.5 718.5 Q184 730 203 730 Z M422 730 Q440 730 454 718.5 Q468 707 468 681 Q468 656 454 643.5 Q440 631 422 631 Q402 631 389 643.5 Q376 656 376 681 Q376 707 389 718.5 Q402 730 422 730 Z " />
<glyph glyph-name="alpha#0" unicode="&#x3b1;" horiz-adv-x="615" d="M275 -10 Q177 -10 116 59.5 Q55 129 55 266 Q55 402 115 474 Q175 546 283 546 Q342 546 381.5 525.5 Q421 505 447 464 L453 464 Q458 481 466 501 Q474 521 485 536 L554 536 Q547 514 541 478 Q535 442 532 401.5 Q529 361 529 326 L529 118 Q529 87 541 74.5 Q553 62 570 62 Q578 62 587 64 Q596 66 600 67 L600 3 Q593 -1 577 -5.5 Q561 -10 544 -10 Q507 -10 483.5 8 Q460 26 449 72 L442 72 Q419 38 381 14 Q343 -10 275 -10 Z M290 63 Q373 63 407.5 110.5 Q442 158 442 261 L442 267 Q442 367 409.5 419.5 Q377 472 289 472 Q216 472 181 419 Q146 366 146 265 Q146 165 180.5 114 Q215 63 290 63 Z " />
<glyph glyph-name="beta#0" unicode="&#x3b2;" horiz-adv-x="631" d="M324 765 Q391 765 443 743.5 Q495 722 524.5 679.5 Q554 637 554 574 Q554 502 515 460 Q476 418 402 406 L402 402 Q493 392 539.5 343 Q586 294 586 203 Q586 100 521.5 45 Q457 -10 342 -10 Q284 -10 244.5 -1 Q205 8 173 24 L173 -240 L85 -240 L85 535 Q85 616 116 666.5 Q147 717 201 741 Q255 765 324 765 Z M322 692 Q282 692 248 678 Q214 664 193.5 629 Q173 594 173 531 L173 103 Q208 85 245.5 73.5 Q283 62 334 62 Q420 62 459 100.5 Q498 139 498 209 Q498 288 450 324.5 Q402 361 324 361 L271 361 L271 435 L314 435 Q392 435 428 472 Q464 509 464 570 Q464 632 425.5 662 Q387 692 322 692 Z " />
<glyph glyph-name="gamma#0" unicode="&#x3b3;" horiz-adv-x="518" d="M513 536 L315 13 Q299 -27 288.5 -73 Q278 -119 272 -162.5 Q266 -206 266 -240 L171 -240 Q171 -212 177.5 -170 Q184 -128 195.5 -81.5 Q207 -35 222 6 L5 536 L96 536 L209 255 Q220 229 231 197 Q242 165 251 135.5 Q260 106 263 89 L267 89 Q270 105 278.5 135 Q287 165 297.5 197 Q308 229 316 251 L422 536 L513 536 Z " />
<glyph glyph-name="delta#0" unicode="&#x3b4;" horiz-adv-x="604" d="M319 760 Q388 760 437 743 Q486 726 525 706 L487 637 Q450 658 408 673 Q366 688 315 688 Q270 688 249 667.5 Q228 647 228 619 Q228 595 241 576 Q254 557 283.5 536.5 Q313 516 362 489 Q453 440 501.5 381.5 Q550 323 550 236 Q550 116 481.5 53 Q413 -10 300 -10 Q228 -10 172.5 16 Q117 42 85.5 92 Q54 142 54 214 Q54 278 81.5 326 Q109 374 156 406.5 Q203 439 263 456 Q207 488 173 526.5 Q139 565 139 620 Q139 689 190.5 724.5 Q242 760 319 760 Z M333 418 Q302 411 269.5 396.5 Q237 382 209 358.5 Q181 335 163.5 299.5 Q146 264 146 213 Q146 147 186.5 105 Q227 63 300 63 Q377 63 418 107.5 Q459 152 459 235 Q459 303 425.5 345 Q392 387 333 418 Z " />
<glyph glyph-name="epsilon#0" unicode="&#x3b5;" horiz-adv-x="483" d="M355 315 L355 243 L282 243 Q131 243 131 151 Q131 102 172 82 Q213 62 273 62 Q329 62 371.5 75 Q414 88 447 104 L447 27 Q416 11 373 0.5 Q330 -10 268 -10 Q153 -10 98 34.5 Q43 79 43 146 Q43 186 59.5 211.5 Q76 237 103 252.5 Q130 268 162 277 L162 282 Q117 296 89.5 325.5 Q62 355 62 404 Q62 472 119.5 509 Q177 546 268 546 Q326 546 367.5 536 Q409 526 449 508 L416 438 Q383 453 348.5 463 Q314 473 267 473 Q146 473 146 397 Q146 353 187.5 334 Q229 315 299 315 L355 315 Z " />
<glyph glyph-name="zeta#0" unicode="&#x3b6;" horiz-adv-x="484" d="M457 -40 Q457 -84 437.5 -123.5 Q418 -163 394 -195 L307 -195 Q331 -163 350 -126.5 Q369 -90 369 -63 Q369 -49 361 -37 Q353 -25 327 -14.5 Q301 -4 248 5 Q153 22 104 73.5 Q55 125 55 224 Q55 299 79 361.5 Q103 424 144.5 479 Q186 534 240 586 Q294 638 353 691 Q349 691 326.5 690 Q304 689 271.5 688 Q239 687 205 687 L85 687 L85 760 L457 760 L457 694 Q354 607 291.5 538.5 Q229 470 198 415 Q167 360 156.5 315 Q146 270 146 230 Q146 173 166 143.5 Q186 114 224 99.5 Q262 85 316 74 Q393 58 425 30.5 Q457 3 457 -40 Z " />
<glyph glyph-name="eta#0" unicode="&#x3b7;" horiz-adv-x="618" d="M343 546 Q439 546 488 499.5 Q537 453 537 349 L537 -240 L450 -240 L450 343 Q450 407 421 439.5 Q392 472 330 472 Q242 472 207.5 422 Q173 372 173 278 L173 0 L85 0 L85 536 L156 536 L169 463 L174 463 Q200 505 246 525.5 Q292 546 343 546 Z " />
<glyph glyph-name="theta#0" unicode="&#x3b8;" horiz-adv-x="595" d="M540 377 Q540 256 515.5 169.5 Q491 83 437.5 36.5 Q384 -10 296 -10 Q172 -10 113.5 93 Q55 196 55 377 Q55 499 79 586 Q103 673 156 719 Q209 765 296 765 Q421 765 480.5 663.5 Q540 562 540 377 Z M296 693 Q220 693 184.5 625.5 Q149 558 144 424 L450 424 Q445 558 409 625.5 Q373 693 296 693 Z M296 62 Q374 62 411 134 Q448 206 451 351 L144 351 Q146 208 181.5 135 Q217 62 296 62 Z " />
<glyph glyph-name="iota#0" unicode="&#x3b9;" horiz-adv-x="346" d="M169 536 L169 158 Q169 110 187.5 86 Q206 62 246 62 Q268 62 291.5 65.5 Q315 69 328 73 L328 6 Q314 -1 287 -5.5 Q260 -10 234 -10 Q190 -10 155.5 4.5 Q121 19 101.5 55.5 Q82 92 82 157 L82 536 L169 536 Z " />
<glyph glyph-name="kappa#0" unicode="&#x3ba;" horiz-adv-x="534" d="M509 536 L306 299 L525 0 L420 0 L244 242 L178 188 L178 0 L85 0 L85 536 L178 536 L178 397 Q178 357 176 319 Q174 281 172 261 L174 261 Q183 274 193.5 287.5 Q204 301 213 312 L403 536 L509 536 Z " />
<glyph glyph-name="lambda#0" unicode="&#x3bb;" horiz-adv-x="542" d="M-6 0 L225 526 L198 601 Q182 644 163 668.5 Q144 693 101 693 Q83 693 69.5 691 Q56 689 45 687 L45 758 Q59 761 76 763.5 Q93 766 111 766 Q162 766 194 748 Q226 730 247.5 692.5 Q269 655 289 598 L462 116 Q481 62 512 62 Q520 62 528.5 64 Q537 66 542 67 L542 2 Q531 -3 516.5 -6.5 Q502 -10 485 -10 Q448 -10 426.5 8.5 Q405 27 389 71 L316 276 Q308 300 297.5 329.5 Q287 359 278.5 387.5 Q270 416 266 435 L262 435 Q253 400 238.5 360 Q224 320 207 281 L85 0 L-6 0 Z " />
<glyph glyph-name="uni03BC#0" unicode="&#x3bc;" horiz-adv-x="623" d="M538 536 L538 0 L467 0 L453 72 L448 72 Q423 32 383 11 Q343 -10 287 -10 Q248 -10 220 2.5 Q192 15 172 35 L168 35 Q170 17 171.5 -13 Q173 -43 173 -84 L173 -240 L85 -240 L85 536 L173 536 L173 190 Q173 63 293 63 Q382 63 416 113 Q450 163 450 257 L450 536 L538 536 Z " />
<glyph glyph-name="nu#0" unicode="&#x3bd;" horiz-adv-x="547" d="M0 536 L91 536 L198 247 Q207 223 218.5 190 Q230 157 240.5 125.5 Q251 94 256 74 L260 74 Q322 137 356.5 206.5 Q391 276 405 357.5 Q419 439 419 536 L506 536 Q506 431 487.5 340.5 Q469 250 423.5 166.5 Q378 83 295 0 L200 0 L0 536 Z " />
<glyph glyph-name="xi#0" unicode="&#x3be;" horiz-adv-x="477" d="M54 206 Q54 256 73.5 294.5 Q93 333 125 358.5 Q157 384 194 395 L194 401 Q145 415 116.5 447.5 Q88 480 88 537 Q88 584 108.5 614.5 Q129 645 162.5 663 Q196 681 236 693 Q217 691 183 689 Q149 687 115 687 L85 687 L85 760 L431 760 L431 692 L405 692 Q348 692 294.5 675 Q241 658 207 624 Q173 590 173 539 Q173 488 210 460.5 Q247 433 336 433 L419 433 L419 366 L333 366 Q242 366 194 322 Q146 278 146 213 Q146 162 167 136 Q188 110 227.5 97 Q267 84 320 73 Q397 57 427 29 Q457 1 457 -40 Q457 -84 438 -123.5 Q419 -163 397 -195 L314 -195 Q337 -163 355 -126.5 Q373 -90 373 -62 Q373 -48 365 -36.5 Q357 -25 330.5 -14.5 Q304 -4 251 5 Q154 22 104 71 Q54 120 54 206 Z " />
<glyph glyph-name="omicron#0" unicode="&#x3bf;" horiz-adv-x="605" d="M551 269 Q551 136 483.5 63 Q416 -10 301 -10 Q230 -10 174.5 22.5 Q119 55 87 117.5 Q55 180 55 269 Q55 402 122 474 Q189 546 304 546 Q377 546 432.5 513.5 Q488 481 519.5 419.5 Q551 358 551 269 Z M146 269 Q146 174 183.5 118.5 Q221 63 303 63 Q384 63 422 118.5 Q460 174 460 269 Q460 364 422 418 Q384 472 302 472 Q220 472 183 418 Q146 364 146 269 Z " />
<glyph glyph-name="pi#0" unicode="&#x3c0;" horiz-adv-x="659" d="M568 62 Q582 62 593.5 65 Q605 68 612 72 L612 3 Q604 -1 586.5 -5.5 Q569 -10 546 -10 Q435 -10 435 118 L435 463 L208 463 L208 0 L121 0 L121 463 L12 463 L12 501 L84 536 L627 536 L627 463 L522 463 L522 124 Q522 89 535 75.5 Q548 62 568 62 Z " />
<glyph glyph-name="rho#0" unicode="&#x3c1;" horiz-adv-x="605" d="M550 268 Q550 132 486.5 61 Q423 -10 313 -10 Q273 -10 235 1.5 Q197 13 168 35 L163 35 Q165 19 166.5 -17 Q168 -53 168 -98 L168 -240 L79 -240 L79 275 Q79 412 144 479 Q209 546 318 546 Q386 546 438.5 514 Q491 482 520.5 420 Q550 358 550 268 Z M314 472 Q168 472 168 274 L168 112 Q197 87 234.5 75 Q272 63 312 63 Q391 63 425.5 115 Q460 167 460 268 Q460 371 425.5 421.5 Q391 472 314 472 Z " />
<glyph glyph-name="uni03C2#0" unicode="&#x3c2;" horiz-adv-x="484" d="M313 546 Q353 546 391.5 537.5 Q430 529 458 517 L430 444 Q404 454 373 461.5 Q342 469 309 469 Q222 469 184 414 Q146 359 146 254 Q146 194 160 160.5 Q174 127 211.5 108 Q249 89 319 74 Q396 58 426.5 29.5 Q457 1 457 -40 Q457 -84 438 -124.5 Q419 -165 397 -195 L314 -195 Q337 -163 355.5 -126.5 Q374 -90 374 -62 Q374 -48 366 -36.5 Q358 -25 331.5 -14.5 Q305 -4 252 6 Q197 17 152.5 43 Q108 69 81.5 119.5 Q55 170 55 253 Q55 354 88 419 Q121 484 179 515 Q237 546 313 546 Z " />
<glyph glyph-name="sigma#0" unicode="&#x3c3;" horiz-adv-x="617" d="M550 246 Q550 174 522 116 Q494 58 438.5 24 Q383 -10 301 -10 Q190 -10 122.5 58 Q55 126 55 256 Q55 357 90.5 418.5 Q126 480 191.5 508 Q257 536 346 536 L593 536 L593 463 L463 463 Q502 426 526 372 Q550 318 550 246 Z M146 256 Q146 171 183 117 Q220 63 303 63 Q386 63 423 114 Q460 165 460 244 Q460 309 438.5 364.5 Q417 420 377 463 L346 463 Q246 463 196 416 Q146 369 146 256 Z " />
<glyph glyph-name="tau#0" unicode="&#x3c4;" horiz-adv-x="479" d="M452 536 L452 462 L243 462 L243 164 Q243 106 269.5 83 Q296 60 339 60 Q361 60 384.5 63.5 Q408 67 424 71 L424 5 Q410 -1 382.5 -6 Q355 -11 326 -11 Q280 -11 241 2.5 Q202 16 178 52 Q154 88 154 155 L154 462 L10 462 L10 501 L83 536 L452 536 Z " />
<glyph glyph-name="upsilon#0" unicode="&#x3c5;" horiz-adv-x="613" d="M307 -10 Q218 -10 168.5 23.5 Q119 57 99 114 Q79 171 79 243 L79 536 L167 536 L167 246 Q167 161 202 111.5 Q237 62 314 62 Q394 62 432 119 Q470 176 470 296 Q470 366 462 421 Q454 476 439 536 L527 536 Q543 477 551 421.5 Q559 366 559 292 Q559 137 495.5 63.5 Q432 -10 307 -10 Z " />
<glyph glyph-name="phi#0" unicode="&#x3c6;" horiz-adv-x="725" d="M157 541 L225 494 Q188 445 165.5 391.5 Q143 338 143 268 Q143 195 166.5 151.5 Q190 108 229 88 Q268 68 314 63 L314 361 Q314 452 356.5 499 Q399 546 472 546 Q534 546 578 512.5 Q622 479 646 419.5 Q670 360 670 281 Q670 184 632.5 121.5 Q595 59 533 27 Q471 -5 400 -9 L400 -240 L314 -240 L314 -9 Q240 -5 181.5 24 Q123 53 89 113 Q55 173 55 271 Q55 352 84 419.5 Q113 487 157 541 Z M473 473 Q444 473 422 449 Q400 425 400 362 L400 63 Q451 68 492 92.5 Q533 117 557 163.5 Q581 210 581 280 Q581 374 550.5 423.5 Q520 473 473 473 Z " />
<glyph glyph-name="chi#0" unicode="&#x3c7;" horiz-adv-x="551" d="M90 539 Q140 539 163.5 507.5 Q187 476 210 417 L278 245 L431 536 L525 536 L315 160 L408 -76 Q426 -122 444.5 -145 Q463 -168 500 -168 Q513 -168 524.5 -166.5 Q536 -165 545 -164 L545 -232 Q534 -235 519 -237.5 Q504 -240 483 -240 Q438 -240 409.5 -223.5 Q381 -207 362.5 -176.5 Q344 -146 328 -104 L257 82 L83 -240 L-11 -240 L217 170 L135 383 Q120 423 103.5 445.5 Q87 468 61 468 Q42 468 28 462 L28 531 Q39 534 54 536.5 Q69 539 90 539 Z " />
<glyph glyph-name="psi#0" unicode="&#x3c8;" horiz-adv-x="761" d="M426 759 L426 65 Q511 73 562.5 123.5 Q614 174 614 280 Q614 349 606 407.5 Q598 466 582 536 L669 536 Q685 469 692.5 409 Q700 349 700 283 Q700 180 663 117.5 Q626 55 564 25.5 Q502 -4 426 -9 L426 -240 L340 -240 L340 -9 Q264 -6 205 22 Q146 50 112.5 110.5 Q79 171 79 270 L79 536 L166 536 L166 267 Q166 192 190 149 Q214 106 254 87 Q294 68 340 64 L340 759 L426 759 Z " />
<glyph glyph-name="omega#0" unicode="&#x3c9;" horiz-adv-x="782" d="M667 536 Q698 466 712 402 Q726 338 726 260 Q726 179 704 118.5 Q682 58 639.5 24 Q597 -10 535 -10 Q427 -10 393 80 L388 80 Q356 -10 247 -10 Q185 -10 142.5 24 Q100 58 78 118.5 Q56 179 56 260 Q56 338 70 402 Q84 466 115 536 L205 536 Q174 466 159 402.5 Q144 339 144 259 Q144 162 174 112.5 Q204 63 253 63 Q303 63 326 100 Q349 137 349 193 L349 344 L433 344 L433 193 Q433 131 458 97 Q483 63 528 63 Q578 63 608 112.5 Q638 162 638 259 Q638 339 623.5 402.5 Q609 466 577 536 L667 536 Z " />
<glyph glyph-name="iotadieresis#0" unicode="&#x3ca;" horiz-adv-x="346" d="M169 536 L169 158 Q169 110 187.5 86 Q206 62 246 62 Q268 62 291.5 65.5 Q315 69 328 73 L328 6 Q314 -1 287 -5.5 Q260 -10 234 -10 Q190 -10 155.5 4.5 Q121 19 101.5 55.5 Q82 92 82 157 L82 536 L169 536 Z M-11 681 Q-11 707 3 718.5 Q17 730 36 730 Q55 730 69 718.5 Q83 707 83 681 Q83 656 69 643.5 Q55 631 36 631 Q17 631 3 643.5 Q-11 656 -11 681 Z M177 681 Q177 707 190.5 718.5 Q204 730 223 730 Q242 730 256 718.5 Q270 707 270 681 Q270 656 256 643.5 Q242 631 223 631 Q204 631 190.5 643.5 Q177 656 177 681 Z " />
<glyph glyph-name="upsilondieresis#0" unicode="&#x3cb;" horiz-adv-x="613" d="M307 -10 Q218 -10 168.5 23.5 Q119 57 99 114 Q79 171 79 243 L79 536 L167 536 L167 246 Q167 161 202 111.5 Q237 62 314 62 Q394 62 432 119 Q470 176 470 296 Q470 366 462 421 Q454 476 439 536 L527 536 Q543 477 551 421.5 Q559 366 559 292 Q559 137 495.5 63.5 Q432 -10 307 -10 Z M167 681 Q167 707 181 718.5 Q195 730 214 730 Q233 730 247 718.5 Q261 707 261 681 Q261 656 247 643.5 Q233 631 214 631 Q195 631 181 643.5 Q167 656 167 681 Z M355 681 Q355 707 368.5 718.5 Q382 730 401 730 Q420 730 434 718.5 Q448 707 448 681 Q448 656 434 643.5 Q420 631 401 631 Q382 631 368.5 643.5 Q355 656 355 681 Z " />
<glyph glyph-name="omicrontonos#0" unicode="&#x3cc;" horiz-adv-x="605" d="M551 269 Q551 136 483.5 63 Q416 -10 301 -10 Q230 -10 174.5 22.5 Q119 55 87 117.5 Q55 180 55 269 Q55 402 122 474 Q189 546 304 546 Q377 546 432.5 513.5 Q488 481 519.5 419.5 Q551 358 551 269 Z M146 269 Q146 174 183.5 118.5 Q221 63 303 63 Q384 63 422 118.5 Q460 174 460 269 Q460 364 422 418 Q384 472 302 472 Q220 472 183 418 Q146 364 146 269 Z M264 606 L264 620 Q273 644 282 677 Q291 710 298 744 Q305 778 309 805 L403 805 L403 794 Q398 772 384 738.5 Q370 705 352 669.5 Q334 634 317 606 L264 606 Z " />
<glyph glyph-name="upsilontonos#0" unicode="&#x3cd;" horiz-adv-x="613" d="M307 -10 Q218 -10 168.5 23.5 Q119 57 99 114 Q79 171 79 243 L79 536 L167 536 L167 246 Q167 161 202 111.5 Q237 62 314 62 Q394 62 432 119 Q470 176 470 296 Q470 366 462 421 Q454 476 439 536 L527 536 Q543 477 551 421.5 Q559 366 559 292 Q559 137 495.5 63.5 Q432 -10 307 -10 Z M269 606 L269 620 Q278 644 287 677 Q296 710 303 744 Q310 778 314 805 L408 805 L408 794 Q403 772 389 738.5 Q375 705 357 669.5 Q339 634 322 606 L269 606 Z " />
<glyph glyph-name="omegatonos#0" unicode="&#x3ce;" horiz-adv-x="782" d="M667 536 Q698 466 712 402 Q726 338 726 260 Q726 179 704 118.5 Q682 58 639.5 24 Q597 -10 535 -10 Q427 -10 393 80 L388 80 Q356 -10 247 -10 Q185 -10 142.5 24 Q100 58 78 118.5 Q56 179 56 260 Q56 338 70 402 Q84 466 115 536 L205 536 Q174 466 159 402.5 Q144 339 144 259 Q144 162 174 112.5 Q204 63 253 63 Q303 63 326 100 Q349 137 349 193 L349 344 L433 344 L433 193 Q433 131 458 97 Q483 63 528 63 Q578 63 608 112.5 Q638 162 638 259 Q638 339 623.5 402.5 Q609 466 577 536 L667 536 Z M350 606 L350 620 Q359 644 368 677 Q377 710 384 744 Q391 778 395 805 L489 805 L489 794 Q484 772 470 738.5 Q456 705 438 669.5 Q420 634 403 606 L350 606 Z " />
<glyph glyph-name="uni0401#0" unicode="&#x401;" horiz-adv-x="556" d="M496 0 L97 0 L97 714 L496 714 L496 635 L187 635 L187 412 L478 412 L478 334 L187 334 L187 79 L496 79 L496 0 Z M164 859 Q164 885 178 896.5 Q192 908 211 908 Q230 908 244 896.5 Q258 885 258 859 Q258 834 244 821.5 Q230 809 211 809 Q192 809 178 821.5 Q164 834 164 859 Z M352 859 Q352 885 365.5 896.5 Q379 908 398 908 Q417 908 431 896.5 Q445 885 445 859 Q445 834 431 821.5 Q417 809 398 809 Q379 809 365.5 821.5 Q352 834 352 859 Z " />
<glyph glyph-name="uni0402#0" unicode="&#x402;" horiz-adv-x="741" d="M484 -10 Q435 -10 408 2 L408 80 Q437 70 480 70 Q502 70 524.5 78.5 Q547 87 562 111 Q577 135 577 181 L577 245 Q577 303 548 331 Q519 359 449 359 L265 359 L265 0 L176 0 L176 635 L10 635 L10 714 L482 714 L482 635 L265 635 L265 438 L456 438 Q557 438 611.5 391.5 Q666 345 666 257 L666 187 Q666 87 615 38.5 Q564 -10 484 -10 Z " />
<glyph glyph-name="uni0403#0" unicode="&#x403;" horiz-adv-x="524" d="M500 714 L500 634 L187 634 L187 0 L97 0 L97 714 L500 714 Z M446 944 L446 934 Q434 916 409 887.5 Q384 859 355 830.5 Q326 802 303 784 L245 784 L245 796 Q260 814 277.5 840.5 Q295 867 312 894.5 Q329 922 340 944 L446 944 Z " />
<glyph glyph-name="uni0404#0" unicode="&#x404;" horiz-adv-x="643" d="M407 645 Q301 645 236 586 Q171 527 158 411 L506 411 L506 333 L156 333 Q161 206 223.5 137.5 Q286 69 407 69 Q456 69 500 77 Q544 85 586 97 L586 19 Q508 -10 395 -10 Q279 -10 205 36 Q131 82 96 164.5 Q61 247 61 358 Q61 468 101 550.5 Q141 633 218.5 679 Q296 725 409 725 Q474 725 523.5 713 Q573 701 614 681 L577 604 Q542 621 500 633 Q458 645 407 645 Z " />
<glyph glyph-name="uni0405#0" unicode="&#x405;" horiz-adv-x="549" d="M502 191 Q502 96 433 43 Q364 -10 247 -10 Q187 -10 136 -1 Q85 8 51 24 L51 110 Q87 94 140.5 81 Q194 68 251 68 Q331 68 371.5 99 Q412 130 412 183 Q412 218 397 242 Q382 266 345.5 286.5 Q309 307 244 330 Q153 363 106.5 411 Q60 459 60 542 Q60 599 89 639.5 Q118 680 169.5 702 Q221 724 288 724 Q347 724 396 713 Q445 702 485 684 L457 607 Q420 623 376.5 634 Q333 645 286 645 Q219 645 185 616.5 Q151 588 151 541 Q151 505 166 481 Q181 457 215 438 Q249 419 307 397 Q370 374 413.5 347.5 Q457 321 479.5 284 Q502 247 502 191 Z " />
<glyph glyph-name="uni0409#0" unicode="&#x409;" horiz-adv-x="936" d="M66 -11 Q49 -11 32 -7.5 Q15 -4 1 1 L1 76 Q12 71 26 67.5 Q40 64 56 64 Q85 64 102.5 87.5 Q120 111 130 147.5 Q140 184 148 223 Q156 263 167.5 336 Q179 409 192.5 506 Q206 603 221 714 L561 714 L561 412 L620 412 Q725 412 786 385 Q847 358 872.5 312 Q898 266 898 209 Q898 115 835 57.5 Q772 0 635 0 L471 0 L471 635 L297 635 Q287 561 275.5 479.5 Q264 398 253 324 Q242 250 231 198 Q218 131 199 84 Q180 37 148.5 13 Q117 -11 66 -11 Z M561 77 L624 77 Q717 77 761 109.5 Q805 142 805 209 Q805 278 757 306 Q709 334 609 334 L561 334 L561 77 Z " />
<glyph glyph-name="uni040A#0" unicode="&#x40a;" horiz-adv-x="958" d="M97 0 L97 714 L187 714 L187 412 L493 412 L493 714 L584 714 L584 412 L642 412 Q747 412 808 385 Q869 358 894.5 312 Q920 266 920 209 Q920 115 857 57.5 Q794 0 658 0 L493 0 L493 333 L187 333 L187 0 L97 0 Z M584 77 L647 77 Q739 77 783 109.5 Q827 142 827 209 Q827 278 779 306 Q731 334 632 334 L584 334 L584 77 Z " />
<glyph glyph-name="uni040B#0" unicode="&#x40b;" horiz-adv-x="741" d="M510 714 L510 634 L265 634 L265 437 L459 437 Q559 437 612.5 391 Q666 345 666 256 L666 0 L576 0 L576 245 Q576 303 548.5 330.5 Q521 358 453 358 L265 358 L265 0 L175 0 L175 634 L10 634 L10 714 L510 714 Z " />
<glyph glyph-name="uni040C#0" unicode="&#x40c;" horiz-adv-x="618" d="M618 0 L510 0 L187 362 L187 0 L97 0 L97 714 L187 714 L187 368 L502 714 L604 714 L294 367 L618 0 Z M477 944 L477 934 Q465 916 440 887.5 Q415 859 386 830.5 Q357 802 334 784 L276 784 L276 796 Q291 814 308.5 840.5 Q326 867 343 894.5 Q360 922 371 944 L477 944 Z " />
<glyph glyph-name="uni040E#0" unicode="&#x40e;" horiz-adv-x="624" d="M624 714 L396 203 Q364 131 331.5 84 Q299 37 255 13.5 Q211 -10 143 -10 Q115 -10 90.5 -6 Q66 -2 46 5 L46 94 Q66 85 89 79.5 Q112 74 137 74 Q193 74 225.5 98 Q258 122 286 183 L11 714 L110 714 L309 321 Q314 311 321 295.5 Q328 280 333 266 L337 266 Q341 277 347 292.5 Q353 308 357 318 L529 714 L624 714 Z M505 936 Q498 861 454.5 822.5 Q411 784 316 784 Q218 784 177.5 822 Q137 860 132 936 L214 936 Q219 882 242.5 863.5 Q266 845 318 845 Q364 845 390.5 864.5 Q417 884 422 936 L505 936 Z " />
<glyph glyph-name="uni040F#0" unicode="&#x40f;" horiz-adv-x="731" d="M633 0 L408 0 L408 -188 L316 -188 L316 0 L97 0 L97 714 L187 714 L187 80 L544 80 L544 714 L633 714 L633 0 Z " />
<glyph glyph-name="uni0410#0" unicode="&#x410;" horiz-adv-x="639" d="M545 0 L459 221 L176 221 L91 0 L0 0 L279 717 L360 717 L638 0 L545 0 Z M432 301 L352 517 Q349 525 342 546 Q335 567 328.5 589.5 Q322 612 318 624 Q311 593 302 563.5 Q293 534 287 517 L206 301 L432 301 Z " />
<glyph glyph-name="uni0411#0" unicode="&#x411;" horiz-adv-x="615" d="M97 0 L97 714 L521 714 L521 635 L187 635 L187 412 L293 412 Q400 412 459 385.5 Q518 359 541 313.5 Q564 268 564 209 Q564 111 505 55.5 Q446 0 306 0 L97 0 Z M187 77 L297 77 Q393 77 432 109.5 Q471 142 471 209 Q471 278 428 306 Q385 334 282 334 L187 334 L187 77 Z " />
<glyph glyph-name="uni0412#0" unicode="&#x412;" horiz-adv-x="650" d="M97 714 L301 714 Q435 714 503.5 674.5 Q572 635 572 537 Q572 474 537 432.5 Q502 391 436 379 L436 374 Q481 367 517.5 348 Q554 329 575 294 Q596 259 596 203 Q596 106 529.5 53 Q463 0 348 0 L97 0 L97 714 Z M187 410 L319 410 Q411 410 445 439.5 Q479 469 479 527 Q479 586 437.5 611.5 Q396 637 305 637 L187 637 L187 410 Z M187 335 L187 76 L331 76 Q426 76 463 113 Q500 150 500 210 Q500 266 461.5 300.5 Q423 335 324 335 L187 335 Z " />
<glyph glyph-name="uni0413#0" unicode="&#x413;" horiz-adv-x="524" d="M500 714 L500 634 L187 634 L187 0 L97 0 L97 714 L500 714 Z " />
<glyph glyph-name="uni0414#0" unicode="&#x414;" horiz-adv-x="691" d="M578 714 L578 80 L669 80 L669 -188 L583 -188 L583 0 L92 0 L92 -188 L6 -188 L6 80 L61 80 Q97 142 129.5 219 Q162 296 187 380.5 Q212 465 228 550 Q244 635 248 714 L578 714 Z M489 633 L327 633 Q323 575 307.5 502 Q292 429 268.5 352.5 Q245 276 216.5 205 Q188 134 156 80 L489 80 L489 633 Z " />
<glyph glyph-name="uni0415#0" unicode="&#x415;" horiz-adv-x="556" d="M496 0 L97 0 L97 714 L496 714 L496 635 L187 635 L187 412 L478 412 L478 334 L187 334 L187 79 L496 79 L496 0 Z " />
<glyph glyph-name="uni0416#0" unicode="&#x416;" horiz-adv-x="854" d="M288 367 L11 714 L111 714 L384 368 L384 714 L470 714 L470 368 L743 714 L843 714 L566 368 L852 0 L749 0 L470 362 L470 0 L384 0 L384 362 L104 0 L1 0 L288 367 Z " />
<glyph glyph-name="uni0417#0" unicode="&#x417;" horiz-adv-x="588" d="M519 547 Q519 474 473 431.5 Q427 389 350 377 L350 373 Q440 361 487 317 Q534 273 534 202 Q534 108 462 49 Q390 -10 246 -10 Q188 -10 135.5 -1.5 Q83 7 38 29 L38 111 Q85 89 140.5 76.5 Q196 64 245 64 Q341 64 390.5 100 Q440 136 440 202 Q440 270 382 301 Q324 332 220 332 L118 332 L118 407 L215 407 Q321 407 373.5 442.5 Q426 478 426 538 Q426 592 386 621 Q346 650 282 650 Q215 650 170.5 633 Q126 616 84 589 L41 650 Q83 681 144.5 702.5 Q206 724 283 724 Q399 724 459 674 Q519 624 519 547 Z " />
<glyph glyph-name="uni0418#0" unicode="&#x418;" horiz-adv-x="768" d="M98 714 L182 714 L182 322 Q182 288 181 247.5 Q180 207 178.5 172.5 Q177 138 175 123 L179 123 L572 714 L672 714 L672 0 L588 0 L588 388 Q588 425 589.5 467 Q591 509 593 544 Q595 579 596 594 L592 594 L198 0 L98 0 L98 714 Z " />
<glyph glyph-name="uni0419#0" unicode="&#x419;" horiz-adv-x="768" d="M98 714 L182 714 L182 322 Q182 288 181 247.5 Q180 207 178.5 172.5 Q177 138 175 123 L179 123 L572 714 L672 714 L672 0 L588 0 L588 388 Q588 425 589.5 467 Q591 509 593 544 Q595 579 596 594 L592 594 L198 0 L98 0 L98 714 Z M584 936 Q577 861 533.5 822.5 Q490 784 395 784 Q297 784 256.5 822 Q216 860 211 936 L293 936 Q298 882 321.5 863.5 Q345 845 397 845 Q443 845 469.5 864.5 Q496 884 501 936 L584 936 Z " />
<glyph glyph-name="uni041A#0" unicode="&#x41a;" horiz-adv-x="618" d="M618 0 L510 0 L187 362 L187 0 L97 0 L97 714 L187 714 L187 368 L502 714 L604 714 L294 367 L618 0 Z " />
<glyph glyph-name="uni041B#0" unicode="&#x41b;" horiz-adv-x="708" d="M611 0 L521 0 L521 635 L295 635 Q285 561 274.5 479.5 Q264 398 253 324 Q242 250 231 198 Q218 131 199 84 Q180 37 148.5 13 Q117 -11 66 -11 Q49 -11 31.5 -7.5 Q14 -4 1 1 L1 76 Q12 71 26 67.5 Q40 64 56 64 Q86 64 103.5 88.5 Q121 113 131 149.5 Q141 186 148 222 Q156 260 167.5 333.5 Q179 407 192.5 505 Q206 603 220 714 L611 714 L611 0 Z " />
<glyph glyph-name="uni041C#0" unicode="&#x41c;" horiz-adv-x="907" d="M412 0 L177 626 L173 626 Q176 595 178 542.5 Q180 490 180 433 L180 0 L97 0 L97 714 L230 714 L450 129 L454 129 L678 714 L810 714 L810 0 L721 0 L721 439 Q721 491 723.5 542 Q726 593 728 625 L724 625 L486 0 L412 0 Z " />
<glyph glyph-name="uni041D#0" unicode="&#x41d;" horiz-adv-x="741" d="M643 0 L553 0 L553 333 L187 333 L187 0 L97 0 L97 714 L187 714 L187 412 L553 412 L553 714 L643 714 L643 0 Z " />
<glyph glyph-name="uni041E#0" unicode="&#x41e;" horiz-adv-x="781" d="M720 358 Q720 247 682.5 164.5 Q645 82 571.5 36 Q498 -10 391 -10 Q279 -10 206 36 Q133 82 97 165 Q61 248 61 359 Q61 469 97 551 Q133 633 206.5 679 Q280 725 392 725 Q499 725 572 679.5 Q645 634 682.5 551.5 Q720 469 720 358 Z M156 358 Q156 223 213 145.5 Q270 68 391 68 Q513 68 569 145.5 Q625 223 625 358 Q625 493 569 569.5 Q513 646 392 646 Q271 646 213.5 569.5 Q156 493 156 358 Z " />
<glyph glyph-name="uni041F#0" unicode="&#x41f;" horiz-adv-x="731" d="M97 0 L97 714 L633 714 L633 0 L544 0 L544 635 L187 635 L187 0 L97 0 Z " />
<glyph glyph-name="uni0420#0" unicode="&#x420;" horiz-adv-x="605" d="M286 714 Q426 714 490 659 Q554 604 554 504 Q554 445 527.5 393.5 Q501 342 438.5 310 Q376 278 269 278 L187 278 L187 0 L97 0 L97 714 L286 714 Z M278 637 L187 637 L187 355 L259 355 Q361 355 411 388 Q461 421 461 500 Q461 569 417 603 Q373 637 278 637 Z " />
<glyph glyph-name="uni0421#0" unicode="&#x421;" horiz-adv-x="632" d="M403 645 Q288 645 222 568 Q156 491 156 357 Q156 224 217.5 146.5 Q279 69 402 69 Q449 69 491 77 Q533 85 573 97 L573 19 Q533 4 490.5 -3 Q448 -10 389 -10 Q280 -10 207 35 Q134 80 97.5 163 Q61 246 61 358 Q61 466 100.5 548.5 Q140 631 217 677.5 Q294 724 404 724 Q517 724 601 682 L565 606 Q532 621 491.5 633 Q451 645 403 645 Z " />
<glyph glyph-name="uni0422#0" unicode="&#x422;" horiz-adv-x="556" d="M323 0 L233 0 L233 635 L10 635 L10 714 L545 714 L545 635 L323 635 L323 0 Z " />
<glyph glyph-name="uni0423#0" unicode="&#x423;" horiz-adv-x="624" d="M624 714 L396 203 Q364 131 331.5 84 Q299 37 255 13.5 Q211 -10 143 -10 Q115 -10 90.5 -6 Q66 -2 46 5 L46 94 Q66 85 89 79.5 Q112 74 137 74 Q193 74 225.5 98 Q258 122 286 183 L11 714 L110 714 L309 321 Q314 311 321 295.5 Q328 280 333 266 L337 266 Q341 277 347 292.5 Q353 308 357 318 L529 714 L624 714 Z " />
<glyph glyph-name="uni0424#0" unicode="&#x424;" horiz-adv-x="804" d="M446 724 L446 636 Q562 634 629 598 Q696 562 724 502.5 Q752 443 752 370 Q752 322 737.5 274.5 Q723 227 688 188.5 Q653 150 594 126 Q535 102 446 100 L446 -10 L357 -10 L357 100 Q266 102 206.5 126.5 Q147 151 113 190.5 Q79 230 65 277 Q51 324 51 370 Q51 441 79.5 500.5 Q108 560 175 597 Q242 634 357 636 L357 724 L446 724 Z M357 560 Q277 558 229.5 534 Q182 510 162 468.5 Q142 427 142 371 Q142 283 193.5 230.5 Q245 178 357 174 L357 560 Z M446 560 L446 174 Q562 178 611.5 231.5 Q661 285 661 371 Q661 427 641 469 Q621 511 574 534.5 Q527 558 446 560 Z " />
<glyph glyph-name="uni0425#0" unicode="&#x425;" horiz-adv-x="586" d="M582 0 L480 0 L291 310 L99 0 L4 0 L241 372 L19 714 L119 714 L294 434 L470 714 L565 714 L344 374 L582 0 Z " />
<glyph glyph-name="uni0426#0" unicode="&#x426;" horiz-adv-x="741" d="M720 79 L720 -188 L634 -188 L634 0 L97 0 L97 714 L187 714 L187 80 L544 80 L544 714 L633 714 L633 79 L720 79 Z " />
<glyph glyph-name="uni0427#0" unicode="&#x427;" horiz-adv-x="698" d="M601 0 L511 0 L511 293 Q453 273 402.5 260.5 Q352 248 290 248 Q190 248 135 294.5 Q80 341 80 429 L80 714 L170 714 L170 442 Q170 384 200.5 355.5 Q231 327 299 327 Q358 327 405 338 Q452 349 511 368 L511 714 L601 714 L601 0 Z " />
<glyph glyph-name="uni0428#0" unicode="&#x428;" horiz-adv-x="1037" d="M939 0 L97 0 L97 714 L187 714 L187 80 L472 80 L472 714 L562 714 L562 80 L848 80 L848 714 L939 714 L939 0 Z " />
<glyph glyph-name="uni0429#0" unicode="&#x429;" horiz-adv-x="1041" d="M1011 79 L1011 -188 L925 -188 L925 0 L97 0 L97 714 L187 714 L187 80 L465 80 L465 714 L556 714 L556 80 L835 80 L835 714 L925 714 L925 79 L1011 79 Z " />
<glyph glyph-name="uni042A#0" unicode="&#x42a;" horiz-adv-x="692" d="M174 0 L174 635 L8 635 L8 714 L263 714 L263 412 L376 412 Q476 412 534 385 Q592 358 616.5 312 Q641 266 641 209 Q641 115 580 57.5 Q519 0 388 0 L174 0 Z M263 77 L379 77 Q466 77 507 109.5 Q548 142 548 209 Q548 278 503 306 Q458 334 365 334 L263 334 L263 77 Z " />
<glyph glyph-name="uni042B#0" unicode="&#x42b;" horiz-adv-x="858" d="M97 0 L97 714 L187 714 L187 412 L297 412 Q397 412 454.5 385 Q512 358 536.5 312 Q561 266 561 209 Q561 115 500.5 57.5 Q440 0 308 0 L97 0 Z M671 0 L671 714 L761 714 L761 0 L671 0 Z M187 76 L300 76 Q386 76 427 109 Q468 142 468 209 Q468 278 423.5 305.5 Q379 333 287 333 L187 333 L187 76 Z " />
<glyph glyph-name="uni042C#0" unicode="&#x42c;" horiz-adv-x="642" d="M97 0 L97 714 L187 714 L187 412 L321 412 Q421 412 480 385 Q539 358 565 312 Q591 266 591 209 Q591 115 527 57.5 Q463 0 332 0 L97 0 Z M187 77 L323 77 Q498 77 498 209 Q498 278 450 306 Q402 334 310 334 L187 334 L187 77 Z " />
<glyph glyph-name="uni042D#0" unicode="&#x42d;" horiz-adv-x="633" d="M232 645 Q182 645 141 633.5 Q100 622 67 607 L30 682 Q71 702 124 713 Q177 724 233 724 Q348 724 422.5 678 Q497 632 534 551.5 Q571 471 571 369 Q571 252 533 167 Q495 82 418.5 36 Q342 -10 226 -10 Q164 -10 121 -3 Q78 4 36 19 L36 97 Q78 86 121 77.5 Q164 69 212 69 Q341 69 406.5 137.5 Q472 206 476 334 L129 334 L129 413 L475 413 Q465 523 400.5 584 Q336 645 232 645 Z " />
<glyph glyph-name="uni042E#0" unicode="&#x42e;" horiz-adv-x="1052" d="M990 358 Q990 247 954.5 164.5 Q919 82 849 36 Q779 -10 675 -10 Q573 -10 503.5 32 Q434 74 397 151 Q360 228 356 333 L187 333 L187 0 L97 0 L97 714 L187 714 L187 412 L358 412 Q365 507 402 577.5 Q439 648 506.5 686.5 Q574 725 673 725 Q776 725 846.5 679.5 Q917 634 953.5 551.5 Q990 469 990 358 Z M450 358 Q450 223 503.5 145.5 Q557 68 672 68 Q789 68 842.5 145.5 Q896 223 896 358 Q896 493 843 569.5 Q790 646 674 646 Q558 646 504 569 Q450 492 450 358 Z " />
<glyph glyph-name="uni042F#0" unicode="&#x42f;" horiz-adv-x="639" d="M312 296 L127 0 L22 0 L222 312 Q184 325 150.5 348 Q117 371 96 410.5 Q75 450 75 514 Q75 611 142 662.5 Q209 714 342 714 L542 714 L542 0 L452 0 L452 296 L312 296 Z M452 637 L344 637 Q259 637 213.5 607.5 Q168 578 168 510 Q168 444 212 408 Q256 372 348 372 L452 372 L452 637 Z " />
<glyph glyph-name="uni0430#0" unicode="&#x430;" horiz-adv-x="561" d="M288 545 Q386 545 433 502 Q480 459 480 365 L480 0 L416 0 L399 76 L395 76 Q360 32 321.5 11 Q283 -10 215 -10 Q142 -10 94 28.5 Q46 67 46 149 Q46 229 109 272.5 Q172 316 303 320 L394 323 L394 355 Q394 422 365 448 Q336 474 283 474 Q241 474 203 461.5 Q165 449 132 433 L105 499 Q140 518 188 531.5 Q236 545 288 545 Z M393 262 L314 259 Q214 255 175.5 227 Q137 199 137 148 Q137 103 164.5 82 Q192 61 235 61 Q303 61 348 98.5 Q393 136 393 214 L393 262 Z " />
<glyph glyph-name="uni0431#0" unicode="&#x431;" horiz-adv-x="599" d="M57 322 Q57 498 110 596.5 Q163 695 281 720 Q346 734 408 745 Q470 756 524 765 L539 688 Q504 682 460 675 Q416 668 373 660 Q330 652 299 646 Q234 632 196 578.5 Q158 525 153 412 L159 412 Q173 431 197.5 451 Q222 471 256.5 485 Q291 499 335 499 Q439 499 492 432 Q545 365 545 258 Q545 168 514 108.5 Q483 49 428 19.5 Q373 -10 300 -10 Q189 -10 123 75 Q57 160 57 322 Z M307 63 Q372 63 412 105 Q452 147 452 249 Q452 331 421.5 378.5 Q391 426 321 426 Q277 426 241 406.5 Q205 387 180.5 362 Q156 337 147 320 Q147 271 154 225 Q161 179 178.5 142.5 Q196 106 227.5 84.5 Q259 63 307 63 Z " />
<glyph glyph-name="uni0432#0" unicode="&#x432;" horiz-adv-x="576" d="M516 401 Q516 351 486 323 Q456 295 409 285 L409 281 Q459 274 496 245.5 Q533 217 533 157 Q533 89 482.5 44.5 Q432 0 316 0 L85 0 L85 536 L315 536 Q372 536 417.5 523.5 Q463 511 489.5 481.5 Q516 452 516 401 Z M427 390 Q427 428 399.5 445.5 Q372 463 310 463 L173 463 L173 316 L294 316 Q427 316 427 390 Z M442 157 Q442 203 407 223 Q372 243 304 243 L173 243 L173 71 L306 71 Q372 71 407 90.5 Q442 110 442 157 Z " />
<glyph glyph-name="uni0433#0" unicode="&#x433;" horiz-adv-x="433" d="M412 536 L412 462 L173 462 L173 0 L85 0 L85 536 L412 536 Z " />
<glyph glyph-name="uni0434#0" unicode="&#x434;" horiz-adv-x="581" d="M483 536 L483 74 L561 74 L561 -186 L476 -186 L476 0 L103 0 L103 -186 L19 -186 L19 74 L62 74 Q131 169 165.5 290.5 Q200 412 201 536 L483 536 Z M398 467 L279 467 Q275 399 258 326.5 Q241 254 214.5 188 Q188 122 153 74 L398 74 L398 467 Z " />
<glyph glyph-name="uni0435#0" unicode="&#x435;" horiz-adv-x="564" d="M292 546 Q360 546 410 516 Q460 486 486.5 431.5 Q513 377 513 304 L513 251 L146 251 Q148 160 192.5 112.5 Q237 65 317 65 Q368 65 407.5 74.5 Q447 84 489 102 L489 25 Q448 7 408 -1.5 Q368 -10 313 -10 Q237 -10 178.5 21 Q120 52 87.5 113 Q55 174 55 264 Q55 352 84.5 415 Q114 478 167.5 512 Q221 546 292 546 Z M291 474 Q228 474 191.5 433.5 Q155 393 148 321 L421 321 Q420 389 389 431.5 Q358 474 291 474 Z " />
<glyph glyph-name="uni0436#0" unicode="&#x436;" horiz-adv-x="750" d="M728 536 L507 276 L747 0 L647 0 L415 272 L415 0 L333 0 L333 272 L101 0 L1 0 L241 276 L20 536 L116 536 L333 276 L333 536 L415 536 L415 276 L633 536 L728 536 Z " />
<glyph glyph-name="uni0437#0" unicode="&#x437;" horiz-adv-x="490" d="M226 546 Q318 546 372.5 509.5 Q427 473 427 405 Q427 356 400 327.5 Q373 299 326 286 L326 282 Q358 273 385 257 Q412 241 428.5 215 Q445 189 445 148 Q445 81 389.5 35.5 Q334 -10 216 -10 Q158 -10 111 -0.5 Q64 9 33 25 L33 104 Q67 88 113.5 75 Q160 62 215 62 Q275 62 316.5 82.5 Q358 103 358 153 Q358 243 205 243 L133 243 L133 315 L191 315 Q260 315 301.5 333.5 Q343 352 343 397 Q343 435 311.5 454 Q280 473 221 473 Q177 473 143.5 464.5 Q110 456 70 439 L39 509 Q123 546 226 546 Z " />
<glyph glyph-name="uni0438#0" unicode="&#x438;" horiz-adv-x="643" d="M168 536 L168 209 Q168 197 167 173 Q166 149 164.5 125 Q163 101 162 87 L449 536 L557 536 L557 0 L475 0 L475 316 Q475 332 475.5 358 Q476 384 477 409.5 Q478 435 479 448 L194 0 L85 0 L85 536 L168 536 Z " />
<glyph glyph-name="uni0439#0" unicode="&#x439;" horiz-adv-x="643" d="M168 536 L168 209 Q168 197 167 173 Q166 149 164.5 125 Q163 101 162 87 L449 536 L557 536 L557 0 L475 0 L475 316 Q475 332 475.5 358 Q476 384 477 409.5 Q478 435 479 448 L194 0 L85 0 L85 536 L168 536 Z M519 758 Q512 683 468.5 644.5 Q425 606 330 606 Q232 606 191.5 644 Q151 682 146 758 L228 758 Q233 704 256.5 685.5 Q280 667 332 667 Q378 667 404.5 686.5 Q431 706 436 758 L519 758 Z " />
<glyph glyph-name="uni043A#0" unicode="&#x43a;" horiz-adv-x="529" d="M402 536 L498 536 L269 278 L517 0 L415 0 L173 272 L173 0 L85 0 L85 536 L173 536 L173 276 L402 536 Z " />
<glyph glyph-name="uni043B#0" unicode="&#x43b;" horiz-adv-x="578" d="M493 0 L404 0 L404 463 L246 463 Q233 294 210 190.5 Q187 87 149 40 Q111 -7 53 -7 Q40 -7 27.5 -5.5 Q15 -4 7 0 L7 66 Q13 64 20 63 Q27 62 34 62 Q88 62 120.5 177 Q153 292 170 536 L493 536 L493 0 Z " />
<glyph glyph-name="uni043C#0" unicode="&#x43c;" horiz-adv-x="746" d="M660 536 L660 0 L581 0 L581 342 Q581 363 582.5 386 Q584 409 586 431 L583 431 L408 0 L334 0 L164 431 L161 431 Q164 386 164 339 L164 0 L85 0 L85 536 L202 536 L371 105 L543 536 L660 536 Z " />
<glyph glyph-name="uni043D#0" unicode="&#x43d;" horiz-adv-x="637" d="M173 536 L173 313 L464 313 L464 536 L552 536 L552 0 L464 0 L464 239 L173 239 L173 0 L85 0 L85 536 L173 536 Z " />
<glyph glyph-name="uni043E#0" unicode="&#x43e;" horiz-adv-x="605" d="M551 269 Q551 136 483.5 63 Q416 -10 301 -10 Q230 -10 174.5 22.5 Q119 55 87 117.5 Q55 180 55 269 Q55 402 122 474 Q189 546 304 546 Q377 546 432.5 513.5 Q488 481 519.5 419.5 Q551 358 551 269 Z M146 269 Q146 174 183.5 118.5 Q221 63 303 63 Q384 63 422 118.5 Q460 174 460 269 Q460 364 422 418 Q384 472 302 472 Q220 472 183 418 Q146 364 146 269 Z " />
<glyph glyph-name="uni043F#0" unicode="&#x43f;" horiz-adv-x="624" d="M538 536 L538 0 L450 0 L450 461 L173 461 L173 0 L85 0 L85 536 L538 536 Z " />
<glyph glyph-name="uni0440#0" unicode="&#x440;" horiz-adv-x="615" d="M340 546 Q439 546 499.5 477 Q560 408 560 269 Q560 132 499.5 61 Q439 -10 339 -10 Q277 -10 236.5 13.5 Q196 37 173 68 L167 68 Q169 51 171 25 Q173 -1 173 -20 L173 -240 L85 -240 L85 536 L157 536 L169 463 L173 463 Q197 498 236 522 Q275 546 340 546 Z M324 472 Q242 472 208.5 426 Q175 380 173 286 L173 269 Q173 170 205.5 116.5 Q238 63 326 63 Q375 63 406.5 90 Q438 117 453.5 163.5 Q469 210 469 270 Q469 362 433.5 417 Q398 472 324 472 Z " />
<glyph glyph-name="uni0441#0" unicode="&#x441;" horiz-adv-x="480" d="M300 -10 Q228 -10 173 19 Q118 48 86.5 109 Q55 170 55 265 Q55 364 88 426 Q121 488 177.5 517 Q234 546 306 546 Q347 546 385 537.5 Q423 529 447 517 L420 444 Q396 453 364 461 Q332 469 304 469 Q146 469 146 266 Q146 169 184.5 117.5 Q223 66 299 66 Q343 66 376.5 75 Q410 84 438 97 L438 19 Q411 5 378.5 -2.5 Q346 -10 300 -10 Z " />
<glyph glyph-name="uni0442#0" unicode="&#x442;" horiz-adv-x="476" d="M455 462 L280 462 L280 0 L193 0 L193 462 L20 462 L20 536 L455 536 L455 462 Z " />
<glyph glyph-name="uni0443#0" unicode="&#x443;" horiz-adv-x="510" d="M1 536 L95 536 L211 231 Q226 191 238 154.5 Q250 118 256 85 L260 85 Q266 110 279 150.5 Q292 191 306 232 L415 536 L510 536 L279 -74 Q251 -150 206.5 -195 Q162 -240 84 -240 Q60 -240 42 -237.5 Q24 -235 11 -232 L11 -162 Q22 -164 37.5 -166 Q53 -168 70 -168 Q116 -168 144.5 -142 Q173 -116 189 -73 L217 -2 L1 536 Z " />
<glyph glyph-name="uni0444#0" unicode="&#x444;" horiz-adv-x="725" d="M405 760 L405 544 Q485 537 544.5 502 Q604 467 637 408 Q670 349 670 268 Q670 147 599.5 75 Q529 3 405 -8 L405 -240 L319 -240 L319 -8 Q240 -1 180 33.5 Q120 68 87 127.5 Q54 187 54 268 Q54 390 124.5 462 Q195 534 322 544 L322 760 L405 760 Z M322 471 Q230 462 188 410.5 Q146 359 146 268 Q146 177 188.5 125 Q231 73 322 64 L322 471 Z M405 470 L405 64 Q495 74 537 126 Q579 178 579 268 Q579 358 536.5 409 Q494 460 405 470 Z " />
<glyph glyph-name="uni0445#0" unicode="&#x445;" horiz-adv-x="529" d="M212 274 L27 536 L127 536 L265 334 L402 536 L501 536 L316 274 L511 0 L411 0 L265 214 L117 0 L18 0 L212 274 Z " />
<glyph glyph-name="uni0446#0" unicode="&#x446;" horiz-adv-x="632" d="M614 -186 L528 -186 L528 0 L85 0 L85 536 L173 536 L173 74 L450 74 L450 536 L538 536 L538 73 L614 73 L614 -186 Z " />
<glyph glyph-name="uni0447#0" unicode="&#x447;" horiz-adv-x="613" d="M162 536 L162 341 Q162 249 265 249 Q315 249 356 264.5 Q397 280 440 306 L440 536 L528 536 L528 0 L440 0 L440 239 Q395 210 351.5 193.5 Q308 177 247 177 Q165 177 119.5 220 Q74 263 74 335 L74 536 L162 536 Z " />
<glyph glyph-name="uni0448#0" unicode="&#x448;" horiz-adv-x="898" d="M812 536 L812 0 L85 0 L85 536 L173 536 L173 74 L404 74 L404 536 L492 536 L492 74 L724 74 L724 536 L812 536 Z " />
<glyph glyph-name="uni0449#0" unicode="&#x449;" horiz-adv-x="906" d="M811 536 L811 73 L889 73 L889 -185 L801 -185 L801 0 L85 0 L85 536 L173 536 L173 74 L404 74 L404 536 L492 536 L492 74 L724 74 L724 536 L811 536 Z " />
<glyph glyph-name="uni044A#0" unicode="&#x44a;" horiz-adv-x="696" d="M277 536 L277 316 L425 316 Q535 316 588.5 277.5 Q642 239 642 164 Q642 89 591 44.5 Q540 0 424 0 L189 0 L189 462 L18 462 L18 536 L277 536 Z M422 242 L277 242 L277 71 L425 71 Q484 71 519.5 91 Q555 111 555 159 Q555 207 522 224.5 Q489 242 422 242 Z " />
<glyph glyph-name="uni044B#0" unicode="&#x44b;" horiz-adv-x="778" d="M85 0 L85 536 L173 536 L173 316 L312 316 Q416 316 466 278 Q516 240 516 164 Q516 89 467 44.5 Q418 0 308 0 L85 0 Z M605 0 L605 536 L693 536 L693 0 L605 0 Z M173 71 L300 71 Q357 71 393 90.5 Q429 110 429 159 Q429 208 396 225.5 Q363 243 301 243 L173 243 L173 71 Z " />
<glyph glyph-name="uni044C#0" unicode="&#x44c;" horiz-adv-x="594" d="M173 316 L332 316 Q541 316 541 164 Q541 89 490 44.5 Q439 0 328 0 L85 0 L85 536 L173 536 L173 316 Z M453 159 Q453 208 418.5 225.5 Q384 243 322 243 L173 243 L173 71 L324 71 Q380 71 416.5 91 Q453 111 453 159 Z " />
<glyph glyph-name="uni044D#0" unicode="&#x44d;" horiz-adv-x="494" d="M171 -10 Q125 -10 91.5 -2.5 Q58 5 29 19 L29 95 Q59 83 94 74 Q129 65 173 65 Q251 65 297 107 Q343 149 348 240 L84 240 L84 312 L347 312 Q340 394 300.5 432 Q261 470 185 470 Q156 470 121.5 462 Q87 454 60 444 L35 515 Q64 528 104 537 Q144 546 184 546 Q259 546 316.5 518 Q374 490 406.5 429 Q439 368 439 268 Q439 172 404.5 110.5 Q370 49 309.5 19.5 Q249 -10 171 -10 Z " />
<glyph glyph-name="uni044E#0" unicode="&#x44e;" horiz-adv-x="836" d="M781 269 Q781 136 717 63 Q653 -10 544 -10 Q442 -10 379.5 54 Q317 118 309 239 L173 239 L173 0 L85 0 L85 536 L173 536 L173 313 L310 313 Q321 426 383 486 Q445 546 546 546 Q615 546 668 513.5 Q721 481 751 419.5 Q781 358 781 269 Z M399 269 Q399 168 434 115.5 Q469 63 545 63 Q622 63 656 115.5 Q690 168 690 269 Q690 370 655.5 421 Q621 472 545 472 Q469 472 434 421 Q399 370 399 269 Z " />
<glyph glyph-name="uni044F#0" unicode="&#x44f;" horiz-adv-x="559" d="M118 0 L16 0 L169 225 Q138 233 109 250.5 Q80 268 62 299.5 Q44 331 44 378 Q44 455 96 495.5 Q148 536 234 536 L474 536 L474 0 L386 0 L386 213 L256 213 L118 0 Z M129 377 Q129 331 163.5 308.5 Q198 286 260 286 L386 286 L386 463 L243 463 Q182 463 155.5 439 Q129 415 129 377 Z " />
<glyph glyph-name="uni0451#0" unicode="&#x451;" horiz-adv-x="564" d="M292 546 Q360 546 410 516 Q460 486 486.5 431.5 Q513 377 513 304 L513 251 L146 251 Q148 160 192.5 112.5 Q237 65 317 65 Q368 65 407.5 74.5 Q447 84 489 102 L489 25 Q448 7 408 -1.5 Q368 -10 313 -10 Q237 -10 178.5 21 Q120 52 87.5 113 Q55 174 55 264 Q55 352 84.5 415 Q114 478 167.5 512 Q221 546 292 546 Z M291 474 Q228 474 191.5 433.5 Q155 393 148 321 L421 321 Q420 389 389 431.5 Q358 474 291 474 Z M144 681 Q144 707 158 718.5 Q172 730 191 730 Q210 730 224 718.5 Q238 707 238 681 Q238 656 224 643.5 Q210 631 191 631 Q172 631 158 643.5 Q144 656 144 681 Z M332 681 Q332 707 345.5 718.5 Q359 730 378 730 Q397 730 411 718.5 Q425 707 425 681 Q425 656 411 643.5 Q397 631 378 631 Q359 631 345.5 643.5 Q332 656 332 681 Z " />
<glyph glyph-name="uni0452#0" unicode="&#x452;" horiz-adv-x="618" d="M399 -240 Q377 -240 360.5 -236.5 Q344 -233 332 -228 L332 -156 Q345 -160 358 -163 Q371 -166 387 -166 Q414 -166 432 -148.5 Q450 -131 450 -83 L450 324 Q450 452 331 452 Q242 452 208 402 Q174 352 174 258 L174 0 L85 0 L85 605 L9 605 L9 670 L85 670 L85 760 L173 760 L173 670 L365 670 L365 605 L173 605 L173 517 Q173 498 172 479 Q171 460 169 443 L174 443 Q200 484 245 505 Q290 526 342 526 Q440 526 489 479.5 Q538 433 538 330 L538 -79 Q538 -155 504 -197.5 Q470 -240 399 -240 Z " />
<glyph glyph-name="uni0453#0" unicode="&#x453;" horiz-adv-x="433" d="M412 536 L412 462 L173 462 L173 0 L85 0 L85 536 L412 536 Z M390 766 L390 756 Q378 738 353 709.5 Q328 681 299 652.5 Q270 624 247 606 L189 606 L189 618 Q204 636 221.5 662.5 Q239 689 256 716.5 Q273 744 284 766 L390 766 Z " />
<glyph glyph-name="uni0454#0" unicode="&#x454;" horiz-adv-x="495" d="M310 -10 Q236 -10 178.5 18.5 Q121 47 88 108 Q55 169 55 265 Q55 365 89 427 Q123 489 181.5 517.5 Q240 546 313 546 Q354 546 393.5 538 Q433 530 461 517 L435 445 Q407 456 373.5 463 Q340 470 311 470 Q234 470 194 431 Q154 392 146 312 L409 312 L409 240 L145 240 Q150 151 190 108 Q230 65 308 65 Q353 65 388 74 Q423 83 453 95 L453 19 Q425 5 391 -2.5 Q357 -10 310 -10 Z " />
<glyph glyph-name="uni0455#0" unicode="&#x455;" horiz-adv-x="479" d="M434 148 Q434 70 376 30 Q318 -10 220 -10 Q164 -10 123.5 -1 Q83 8 52 24 L52 104 Q84 88 129.5 74.5 Q175 61 222 61 Q289 61 319 82.5 Q349 104 349 140 Q349 160 338 176 Q327 192 298.5 208 Q270 224 217 244 Q165 264 128 284 Q91 304 71 332 Q51 360 51 404 Q51 472 106.5 509 Q162 546 252 546 Q301 546 343.5 536.5 Q386 527 423 510 L393 440 Q359 454 322 464 Q285 474 246 474 Q192 474 163.5 456.5 Q135 439 135 409 Q135 387 148 371.5 Q161 356 191.5 341.5 Q222 327 273 307 Q324 288 360 268 Q396 248 415 219.5 Q434 191 434 148 Z " />
<glyph glyph-name="uni0456#0" unicode="&#x456;" horiz-adv-x="258" d="M130 737 Q150 737 165.5 723.5 Q181 710 181 681 Q181 653 165.5 639 Q150 625 130 625 Q108 625 93 639 Q78 653 78 681 Q78 710 93 723.5 Q108 737 130 737 Z M173 536 L173 0 L85 0 L85 536 L173 536 Z " />
<glyph glyph-name="uni0457#0" unicode="&#x457;" horiz-adv-x="258" d="M173 0 L85 0 L85 536 L173 536 L173 0 Z M-12 681 Q-12 707 2 718.5 Q16 730 35 730 Q54 730 68 718.5 Q82 707 82 681 Q82 656 68 643.5 Q54 631 35 631 Q16 631 2 643.5 Q-12 656 -12 681 Z M176 681 Q176 707 189.5 718.5 Q203 730 222 730 Q241 730 255 718.5 Q269 707 269 681 Q269 656 255 643.5 Q241 631 222 631 Q203 631 189.5 643.5 Q176 656 176 681 Z " />
<glyph glyph-name="uni0458#0" unicode="&#x458;" horiz-adv-x="258" d="M78 681 Q78 710 93 723.5 Q108 737 130 737 Q150 737 165.5 723.5 Q181 710 181 681 Q181 653 165.5 639 Q150 625 130 625 Q108 625 93 639 Q78 653 78 681 Z M22 -240 Q-3 -240 -22 -236.5 Q-41 -233 -55 -228 L-55 -157 Q-40 -161 -24 -164 Q-8 -167 11 -167 Q43 -167 64 -149.5 Q85 -132 85 -83 L85 536 L173 536 L173 -80 Q173 -155 137 -197.5 Q101 -240 22 -240 Z " />
</font>
</svg>
